<?xml version="1.0" encoding="UTF-8" standalone="no"?>
<svg
   xmlns:dc="http://purl.org/dc/elements/1.1/"
   xmlns:cc="http://creativecommons.org/ns#"
   xmlns:rdf="http://www.w3.org/1999/02/22-rdf-syntax-ns#"
   xmlns:svg="http://www.w3.org/2000/svg"
   xmlns="http://www.w3.org/2000/svg"
   xmlns:sodipodi="http://sodipodi.sourceforge.net/DTD/sodipodi-0.dtd"
   xmlns:inkscape="http://www.inkscape.org/namespaces/inkscape"
   version="1.1"
   width="1045.886"
   height="652.337"
   viewBox="0 0 1045.886 652.337"
   overflow="visible"
   enable-background="new 0 0 1045.886 652.337"
   xml:space="preserve"
   id="svg40456"
   inkscape:version="0.48.2 r9819"
   sodipodi:docname="Amtrak_System_Map_mk.svg"><metadata
   id="metadata77925"><rdf:RDF><cc:Work
       rdf:about=""><dc:format>image/svg+xml</dc:format><dc:type
         rdf:resource="http://purl.org/dc/dcmitype/StillImage" /></cc:Work></rdf:RDF></metadata><defs
   id="defs77923">
</defs><sodipodi:namedview
   pagecolor="#ffffff"
   bordercolor="#666666"
   borderopacity="1"
   objecttolerance="10"
   gridtolerance="10"
   guidetolerance="10"
   inkscape:pageopacity="0"
   inkscape:pageshadow="2"
   inkscape:window-width="1440"
   inkscape:window-height="848"
   id="namedview77921"
   showgrid="false"
   inkscape:zoom="0.56545198"
   inkscape:cx="669.75058"
   inkscape:cy="532.95271"
   inkscape:window-x="-32000"
   inkscape:window-y="-32000"
   inkscape:window-maximized="1"
   inkscape:current-layer="svg40456" />
<font
   horiz-adv-x="1000"
   id="font40458">
<font-face
   font-family="DejaVu Sans"
   units-per-em="1000"
   underline-position="-100"
   underline-thickness="50"
   id="font-face40460" />
<missing-glyph
   horiz-adv-x="202"
   id="missing-glyph40462" />
<glyph
   unicode="A"
   horiz-adv-x="656"
   d="M416,173l52,-173l164,0l-210,674l-199,0l-206,-674l158,0l47,173M244,287l41,143C295,469 306,520 315,560l3,0C328,521 340,470 351,430l42,-143z"
   id="glyph40464" />
<glyph
   unicode="Æ"
   horiz-adv-x="868"
   d="M160,0l73,184l197,0l24,-184l386,0l0,125l-255,0l-21,157l235,0l0,124l-255,0l-17,143l276,0l0,125l-513,0l-287,-674M279,306l64,162C354,497 367,534 378,567l3,0C384,535 389,500 393,469l20,-163z"
   id="glyph40466" />
<glyph
   unicode="Á"
   horiz-adv-x="656"
   d="M416,173l52,-173l164,0l-210,674l-199,0l-206,-674l158,0l47,173M244,287l41,143C295,469 306,520 315,560l3,0C328,521 340,470 351,430l42,-143M347,836l-87,-126l120,0l125,126z"
   id="glyph40468" />
<glyph
   unicode="Â"
   horiz-adv-x="656"
   d="M416,173l52,-173l164,0l-210,674l-199,0l-206,-674l158,0l47,173M244,287l41,143C295,469 306,520 315,560l3,0C328,521 340,470 351,430l42,-143M277,836l-102,-126l105,0l50,66l2,0l50,-66l106,0l-103,126z"
   id="glyph40470" />
<glyph
   unicode="Ä"
   horiz-adv-x="656"
   d="M416,173l52,-173l164,0l-210,674l-198,0l-206,-674l157,0l48,173M245,287l40,143C296,469 306,520 316,560l2,0C328,521 340,470 352,430l41,-143M231,713C268,713 296,744 296,780C296,819 267,848 231,848C192,848 162,819 162,780C162,744 192,713 230,713M433,713C471,713 499,744 499,780C499,819 470,848 433,848C394,848 365,819 365,780C365,744 393,713 432,713z"
   id="glyph40472" />
<glyph
   unicode="À"
   horiz-adv-x="656"
   d="M416,173l52,-173l164,0l-210,674l-199,0l-206,-674l158,0l47,173M244,287l41,143C295,469 306,520 315,560l3,0C328,521 340,470 351,430l42,-143M147,837l125,-125l120,0l-87,125z"
   id="glyph40474" />
<glyph
   unicode="Å"
   horiz-adv-x="656"
   d="M419,173l52,-173l165,0l-211,676C447,689 460,715 460,746C460,806 418,851 329,851C244,851 198,801 198,745C198,715 210,690 228,678l-207,-678l158,0l47,173M328,800C361,800 380,778 380,748C380,716 361,695 328,695C297,695 278,718 278,747C278,777 295,800 327,800M247,287l42,151C299,475 310,523 318,560l2,0C330,521 342,472 353,435l43,-148z"
   id="glyph40476" />
<glyph
   unicode="Ã"
   horiz-adv-x="656"
   d="M417,173l52,-173l164,0l-210,674l-200,0l-206,-674l158,0l47,173M244,287l40,143C295,469 306,520 316,560l2,0C328,521 340,470 352,430l42,-143M259,715C261,744 270,758 283,758C297,758 309,750 327,740C345,730 365,721 392,721C444,721 473,756 471,843l-68,0C399,809 393,800 376,800C363,800 348,809 331,819C313,830 293,839 266,839C219,839 187,799 190,715z"
   id="glyph40478" />
<glyph
   unicode="B"
   horiz-adv-x="604"
   d="M66,3C100,-2 156,-7 231,-7C365,-7 447,15 496,54C538,87 566,135 566,197C566,284 509,343 432,363l0,2C507,394 542,449 542,508C542,570 509,616 462,641C413,670 356,679 263,679C186,679 106,672 66,664M217,563C229,566 248,568 282,568C351,568 390,541 390,490C390,440 348,407 267,407l-50,0M217,298l52,0C345,298 406,271 406,203C406,132 345,105 276,105C250,105 232,105 217,108z"
   id="glyph40480" />
<glyph
   unicode="C"
   horiz-adv-x="595"
   d="M538,138C507,125 457,116 410,116C275,116 195,201 195,336C195,487 289,560 409,560C464,560 507,548 537,535l32,120C542,669 482,685 403,685C199,685 35,558 35,328C35,135 155,-11 388,-11C469,-11 533,5 560,18z"
   id="glyph40482" />
<glyph
   unicode="Ç"
   horiz-adv-x="597"
   d="M538,138C507,125 457,116 410,116C275,116 195,201 195,336C195,487 289,560 409,560C464,560 507,548 537,535l31,120C542,669 482,685 403,685C199,685 35,558 35,328C35,156 130,23 314,-5l-40,-77C329,-86 352,-100 352,-119C352,-137 334,-144 317,-144C301,-144 279,-138 262,-128l-20,-56C261,-196 290,-204 323,-204C386,-204 444,-182 444,-117C444,-77 410,-49 372,-44l19,33C471,-10 535,5 563,18z"
   id="glyph40484" />
<glyph
   unicode="D"
   horiz-adv-x="696"
   d="M66,3C103,-2 160,-7 239,-7C371,-7 480,21 551,80C615,135 662,224 662,353C662,473 618,557 548,609C484,658 400,679 271,679C195,679 122,674 66,664M218,556C231,559 254,562 287,562C419,562 501,493 501,348C501,187 410,111 271,112C253,112 231,112 218,115z"
   id="glyph40486" />
<glyph
   unicode="E"
   horiz-adv-x="534"
   d="M467,409l-248,0l0,140l263,0l0,125l-415,0l0,-674l429,0l0,125l-277,0l0,160l248,0z"
   id="glyph40488" />
<glyph
   unicode="É"
   horiz-adv-x="534"
   d="M467,409l-248,0l0,140l263,0l0,125l-415,0l0,-674l429,0l0,125l-277,0l0,160l248,0M293,836l-87,-126l120,0l125,126z"
   id="glyph40490" />
<glyph
   unicode="Ê"
   horiz-adv-x="534"
   d="M467,409l-248,0l0,140l263,0l0,125l-415,0l0,-674l429,0l0,125l-277,0l0,160l248,0M225,836l-101,-126l105,0l49,66l2,0l50,-66l106,0l-103,126z"
   id="glyph40492" />
<glyph
   unicode="Ë"
   horiz-adv-x="534"
   d="M467,409l-248,0l0,140l263,0l0,125l-415,0l0,-674l429,0l0,125l-277,0l0,160l248,0M173,713C210,713 238,744 238,780C238,819 209,848 173,848C135,848 105,819 105,780C105,744 134,713 172,713M376,713C414,713 442,744 442,780C442,819 413,848 376,848C337,848 308,819 308,780C308,744 336,713 375,713z"
   id="glyph40494" />
<glyph
   unicode="È"
   horiz-adv-x="534"
   d="M467,409l-248,0l0,140l263,0l0,125l-415,0l0,-674l429,0l0,125l-277,0l0,160l248,0M111,836l125,-124l120,0l-87,124z"
   id="glyph40496" />
<glyph
   unicode="Ð"
   horiz-adv-x="704"
   d="M3,284l71,0l0,-284C111,-4 168,-9 247,-9C378,-9 487,19 558,79C622,134 669,224 669,354C669,473 625,560 555,612C491,661 407,682 279,682C203,682 130,677 74,667l0,-264l-71,0M360,403l-134,0l0,156C239,562 261,565 295,565C427,565 508,496 508,349C508,184 419,110 279,110C261,110 239,110 226,113l0,171l134,0z"
   id="glyph40498" />
<glyph
   unicode="F"
   horiz-adv-x="527"
   d="M67,0l152,0l0,271l242,0l0,124l-242,0l0,154l259,0l0,125l-411,0z"
   id="glyph40500" />
<glyph
   unicode="G"
   horiz-adv-x="682"
   d="M629,386l-251,0l0,-119l104,0l0,-142C470,120 442,116 408,116C283,116 195,197 195,337C195,483 292,555 419,555C493,555 538,543 575,526l32,123C574,664 507,681 420,681C199,681 36,553 35,329C35,230 69,142 130,83C192,24 281,-7 404,-7C493,-7 582,15 629,31z"
   id="glyph40502" />
<glyph
   unicode="H"
   horiz-adv-x="689"
   d="M67,674l0,-674l152,0l0,281l251,0l0,-281l152,0l0,674l-152,0l0,-260l-251,0l0,260z"
   id="glyph40504" />
<glyph
   unicode="I"
   horiz-adv-x="285"
   d="M67,674l0,-674l152,0l0,674z"
   id="glyph40506" />
<glyph
   unicode="Í"
   horiz-adv-x="285"
   d="M67,674l0,-674l152,0l0,674M158,836l-87,-126l119,0l126,126z"
   id="glyph40508" />
<glyph
   unicode="Î"
   horiz-adv-x="285"
   d="M67,674l0,-674l152,0l0,674M89,836l-101,-126l104,0l50,66l2,0l50,-66l105,0l-102,126z"
   id="glyph40510" />
<glyph
   unicode="Ï"
   horiz-adv-x="285"
   d="M67,674l0,-674l152,0l0,674M42,713C79,713 108,744 108,780C108,819 78,848 42,848C3,848 -27,819 -27,780C-27,744 3,713 41,713M245,713C283,713 311,744 311,780C311,819 282,848 245,848C206,848 178,819 178,780C178,744 205,713 244,713z"
   id="glyph40512" />
<glyph
   unicode="Ì"
   horiz-adv-x="285"
   d="M67,674l0,-674l152,0l0,674M-30,837l126,-125l119,0l-87,125z"
   id="glyph40514" />
<glyph
   unicode="J"
   horiz-adv-x="411"
   d="M198,249C198,145 158,116 94,116C64,116 37,121 16,128l-17,-123C29,-5 75,-11 111,-11C258,-11 350,56 350,248l0,426l-152,0z"
   id="glyph40516" />
<glyph
   unicode="K"
   horiz-adv-x="614"
   d="M66,0l151,0l0,220l57,71l166,-291l177,0l-234,387l223,287l-188,0l-152,-224C250,426 234,402 219,376l-2,0l0,298l-151,0z"
   id="glyph40518" />
<glyph
   unicode="L"
   horiz-adv-x="511"
   d="M67,0l420,0l0,128l-268,0l0,546l-152,0z"
   id="glyph40520" />
<glyph
   unicode="Ł"
   horiz-adv-x="517"
   d="M493,0l0,128l-268,0l0,208l126,85l0,106l-126,-85l0,232l-152,0l0,-333l-75,-52l0,-105l75,51l0,-235z"
   id="glyph40522" />
<glyph
   unicode="M"
   horiz-adv-x="846"
   d="M647,0l148,0l-36,674l-200,0l-71,-224C465,374 442,286 424,208l-4,0C405,287 385,371 363,448l-66,226l-203,0l-43,-674l141,0l13,256C209,340 213,444 216,535l2,0C235,446 257,351 279,271l72,-260l119,0l82,263C578,353 606,449 628,535l2,0C630,436 633,339 636,258z"
   id="glyph40524" />
<glyph
   unicode="N"
   horiz-adv-x="690"
   d="M206,0l0,203C206,313 204,408 199,498l4,0C235,419 280,333 320,260l144,-260l160,0l0,674l-140,0l0,-196C484,376 487,285 496,196l-2,0C463,272 424,356 384,427l-140,247l-178,0l0,-674z"
   id="glyph40526" />
<glyph
   unicode="Ñ"
   horiz-adv-x="690"
   d="M206,0l0,203C206,313 204,408 199,498l4,0C235,419 279,333 320,260l145,-260l159,0l0,674l-139,0l0,-196C485,376 487,285 496,196l-2,0C464,272 425,356 384,427l-141,247l-177,0l0,-674M274,715C276,744 285,758 298,758C312,758 324,750 342,740C360,730 380,721 407,721C459,721 488,756 485,843l-67,0C414,809 408,800 391,800C378,800 363,809 346,819C328,830 308,839 281,839C234,839 202,799 205,715z"
   id="glyph40528" />
<glyph
   unicode="O"
   horiz-adv-x="717"
   d="M353,-11C550,-11 683,122 683,344C683,530 570,685 363,685C165,685 35,534 35,332C35,140 153,-11 352,-11M358,110C256,110 195,209 195,336C195,462 254,564 359,564C464,564 521,460 521,339C521,207 462,110 359,110z"
   id="glyph40530" />
<glyph
   unicode="Œ"
   horiz-adv-x="936"
   d="M897,125l-277,0l0,160l248,0l0,124l-248,0l0,140l263,0l0,125l-354,0C512,674 491,677 466,679C442,682 412,685 376,685C172,685 35,547 35,331C35,149 143,-11 373,-11C406,-11 433,-8 456,-6C479,-3 499,0 517,0l380,0M468,122C451,114 424,110 400,110C269,110 196,204 196,337C196,485 284,564 389,564C422,564 449,559 468,550z"
   id="glyph40532" />
<glyph
   unicode="Ó"
   horiz-adv-x="717"
   d="M353,-11C550,-11 683,122 683,344C683,530 570,685 363,685C165,685 35,534 35,332C35,140 153,-11 352,-11M358,110C256,110 195,209 195,336C195,462 254,564 359,564C464,564 521,460 521,339C521,207 462,110 359,110M381,836l-88,-126l120,0l126,126z"
   id="glyph40534" />
<glyph
   unicode="Ô"
   horiz-adv-x="717"
   d="M353,-11C550,-11 683,122 683,344C683,530 570,685 363,685C165,685 35,534 35,332C35,140 153,-11 352,-11M358,110C256,110 195,209 195,336C195,462 254,564 359,564C464,564 521,460 521,339C521,207 462,110 359,110M305,836l-102,-126l105,0l50,66l2,0l50,-66l106,0l-103,126z"
   id="glyph40536" />
<glyph
   unicode="Ö"
   horiz-adv-x="717"
   d="M353,-11C550,-11 683,122 683,344C683,530 570,685 363,685C164,685 35,534 35,332C35,140 153,-11 352,-11M358,110C256,110 195,209 195,336C195,462 254,564 358,564C463,564 520,460 520,339C520,207 462,110 359,110M259,713C296,713 324,744 324,780C324,819 295,848 259,848C220,848 190,819 190,780C190,744 220,713 258,713M461,713C499,713 527,744 527,780C527,819 498,848 461,848C422,848 393,819 393,780C393,744 421,713 460,713z"
   id="glyph40538" />
<glyph
   unicode="Ò"
   horiz-adv-x="717"
   d="M353,-11C550,-11 683,122 683,344C683,530 570,685 363,685C165,685 35,534 35,332C35,140 153,-11 352,-11M358,110C256,110 195,209 195,336C195,462 254,564 359,564C464,564 521,460 521,339C521,207 462,110 359,110M184,837l125,-125l120,0l-87,125z"
   id="glyph40540" />
<glyph
   unicode="Ø"
   horiz-adv-x="717"
   d="M154,-66l60,89C257,1 306,-11 359,-11C546,-11 682,121 682,341C682,436 653,526 594,589l56,84l-86,58l-55,-81C466,673 415,685 360,685C164,685 35,533 35,336C35,236 68,146 128,83l-56,-85M214,214l-1,-1C195,253 187,291 187,337C187,470 251,566 359,566C389,566 416,557 438,541M506,453l2,0C524,414 530,376 530,338C530,202 465,108 359,108C329,108 304,116 285,132z"
   id="glyph40542" />
<glyph
   unicode="Õ"
   horiz-adv-x="717"
   d="M353,-11C550,-11 683,122 683,344C683,530 570,685 362,685C165,685 35,534 35,332C35,140 153,-11 352,-11M357,110C255,110 195,209 195,336C195,462 254,564 358,564C463,564 521,460 521,339C521,207 461,110 358,110M288,715C290,744 299,758 312,758C326,758 337,750 355,740C373,730 393,721 420,721C472,721 501,756 499,843l-68,0C427,809 421,800 404,800C391,800 376,809 359,819C341,830 322,839 295,839C248,839 216,799 219,715z"
   id="glyph40544" />
<glyph
   unicode="P"
   horiz-adv-x="581"
   d="M66,0l151,0l0,242C231,239 249,238 269,238C359,238 437,261 489,309C529,346 550,402 550,469C550,535 522,591 479,624C434,661 366,679 272,679C179,679 113,673 66,665M217,558C228,561 249,563 280,563C357,563 399,526 399,464C399,396 349,355 268,355C246,355 230,356 217,359z"
   id="glyph40546" />
<glyph
   unicode="Q"
   horiz-adv-x="717"
   d="M686,2C633,13 575,25 524,40l0,4C612,84 683,192 683,345C683,529 570,685 365,685C163,685 35,534 35,331C35,111 177,-1 330,-11C345,-12 361,-15 376,-21C467,-58 547,-88 643,-116M359,110C257,110 196,207 196,336C196,463 256,564 360,564C464,564 522,462 522,339C522,207 463,110 360,110z"
   id="glyph40548" />
<glyph
   unicode="R"
   horiz-adv-x="593"
   d="M66,0l151,0l0,265l45,0C325,264 354,242 373,157C392,74 409,19 419,0l156,0C562,26 542,114 521,191C504,253 478,297 431,316l0,3C489,340 550,399 550,484C550,546 528,593 487,625C439,664 369,679 269,679C187,679 115,673 66,664M217,560C228,563 249,565 286,565C356,565 398,533 398,472C398,413 353,375 277,375l-60,0z"
   id="glyph40550" />
<glyph
   unicode="S"
   horiz-adv-x="540"
   d="M40,31C78,10 154,-11 231,-11C416,-11 502,85 502,198C502,294 447,356 328,400C240,434 203,453 203,496C203,530 235,561 301,561C366,561 415,542 441,529l34,122C435,670 380,685 303,685C145,685 48,598 48,483C48,384 122,322 234,282C315,254 347,229 347,188C347,143 310,114 240,114C175,114 111,135 71,156z"
   id="glyph40552" />
<glyph
   unicode="Š"
   horiz-adv-x="540"
   d="M40,31C78,10 154,-11 231,-11C416,-11 502,85 502,198C502,294 447,356 328,400C240,434 203,453 203,496C203,530 235,561 301,561C366,561 415,542 441,529l34,121C435,670 380,685 303,685C145,685 48,598 48,483C48,384 122,322 234,282C315,254 347,229 347,188C347,143 310,114 240,114C175,114 111,135 71,156M338,710l101,126l-104,0l-51,-67l-2,0l-52,67l-103,0l101,-126z"
   id="glyph40554" />
<glyph
   unicode="T"
   horiz-adv-x="548"
   d="M197,0l152,0l0,546l184,0l0,128l-518,0l0,-128l182,0z"
   id="glyph40556" />
<glyph
   unicode="Þ"
   horiz-adv-x="580"
   d="M66,0l150,0l0,133C230,131 253,128 285,128C429,128 549,192 549,357C549,416 525,468 484,503C439,541 379,557 299,557C257,557 235,555 216,553l0,121l-150,0M216,436C228,439 250,441 282,441C356,441 399,407 399,345C399,287 361,246 279,246C254,246 231,248 216,252z"
   id="glyph40558" />
<glyph
   unicode="U"
   horiz-adv-x="682"
   d="M66,674l0,-376C66,84 165,-11 335,-11C511,-11 616,88 616,296l0,378l-152,0l0,-387C464,167 420,111 340,111C263,111 218,170 218,287l0,387z"
   id="glyph40560" />
<glyph
   unicode="Ú"
   horiz-adv-x="682"
   d="M66,674l0,-376C66,84 165,-11 335,-11C511,-11 616,88 616,296l0,378l-152,0l0,-387C464,167 420,111 340,111C263,111 218,170 218,287l0,387M361,836l-88,-126l120,0l125,126z"
   id="glyph40562" />
<glyph
   unicode="Û"
   horiz-adv-x="682"
   d="M66,674l0,-376C66,84 165,-11 335,-11C511,-11 616,88 616,296l0,378l-152,0l0,-387C464,167 420,111 340,111C263,111 218,170 218,287l0,387M298,836l-102,-126l105,0l50,66l2,0l49,-66l106,0l-102,126z"
   id="glyph40564" />
<glyph
   unicode="Ü"
   horiz-adv-x="682"
   d="M66,674l0,-376C66,84 165,-11 335,-11C511,-11 616,88 616,296l0,378l-152,0l0,-387C464,167 420,111 340,111C263,111 218,170 218,287l0,387M247,713C284,713 312,744 312,780C312,819 283,848 247,848C208,848 178,819 178,780C178,744 207,713 246,713M449,713C487,713 515,744 515,780C515,819 486,848 449,848C410,848 381,819 381,780C381,744 409,713 448,713z"
   id="glyph40566" />
<glyph
   unicode="Ù"
   horiz-adv-x="682"
   d="M66,674l0,-376C66,84 165,-11 335,-11C511,-11 616,88 616,296l0,378l-152,0l0,-387C464,167 420,111 340,111C263,111 218,170 218,287l0,387M172,837l125,-125l120,0l-87,125z"
   id="glyph40568" />
<glyph
   unicode="V"
   horiz-adv-x="636"
   d="M403,0l227,674l-162,0l-86,-288C359,309 338,229 321,148l-3,0C302,232 281,308 258,389l-82,285l-167,0l216,-674z"
   id="glyph40570" />
<glyph
   unicode="W"
   horiz-adv-x="888"
   d="M342,0l64,290C422,358 433,422 445,498l2,0C455,421 466,358 479,290l57,-290l165,0l174,674l-155,0l-55,-275C651,318 636,239 626,164l-2,0C614,239 603,311 588,390l-54,284l-162,0l-57,-275C298,315 282,234 271,160l-2,0C258,229 244,316 229,397l-51,277l-163,0l160,-674z"
   id="glyph40572" />
<glyph
   unicode="X"
   horiz-adv-x="613"
   d="M597,0l-200,345l190,329l-174,0l-57,-123C339,512 326,482 310,439l-2,0C292,477 277,510 257,551l-59,123l-175,0l188,-333l-195,-341l174,0l55,122C267,169 284,204 298,243l2,0C319,204 335,169 360,122l61,-122z"
   id="glyph40574" />
<glyph
   unicode="Y"
   horiz-adv-x="603"
   d="M374,0l0,281l222,393l-171,0l-68,-162C337,464 321,425 306,383l-2,0C288,427 273,463 252,512l-68,162l-175,0l213,-398l0,-276z"
   id="glyph40576" />
<glyph
   unicode="Ý"
   horiz-adv-x="603"
   d="M374,0l0,281l222,393l-171,0l-68,-162C337,464 321,425 306,383l-2,0C288,427 273,463 252,512l-68,162l-175,0l213,-398l0,-276M332,836l-87,-126l119,0l126,126z"
   id="glyph40578" />
<glyph
   unicode="Ÿ"
   horiz-adv-x="603"
   d="M374,0l0,281l222,393l-171,0l-68,-162C337,464 321,425 306,383l-2,0C288,427 273,463 252,512l-68,162l-175,0l213,-398l0,-276M209,713C246,713 274,744 274,780C274,819 245,848 209,848C170,848 140,819 140,780C140,744 170,713 208,713M412,713C450,713 478,744 478,780C478,819 449,848 412,848C373,848 344,819 344,780C344,744 372,713 411,713z"
   id="glyph40580" />
<glyph
   unicode="Z"
   horiz-adv-x="577"
   d="M24,0l523,0l0,126l-319,0l0,4l314,456l0,88l-489,0l0,-126l292,0l0,-3l-321,-463z"
   id="glyph40582" />
<glyph
   unicode="Ž"
   horiz-adv-x="577"
   d="M24,0l523,0l0,126l-319,0l0,4l314,456l0,88l-489,0l0,-126l292,0l0,-3l-321,-463M352,710l101,126l-104,0l-51,-67l-2,0l-51,67l-104,0l101,-126z"
   id="glyph40584" />
<glyph
   unicode="a"
   horiz-adv-x="528"
   d="M468,289C468,404 417,500 254,500C165,500 98,475 64,456l28,-97C124,378 177,395 227,395C302,395 316,358 316,332l0,-6C143,326 29,266 29,139C29,61 88,-11 187,-11C245,-11 295,10 327,49l3,0l9,-49l137,0C470,27 468,72 468,118M321,178C321,169 320,160 318,152C308,121 276,96 239,96C205,96 179,115 179,154C179,212 241,231 321,231z"
   id="glyph40586" />
<glyph
   unicode="á"
   horiz-adv-x="528"
   d="M468,289C468,404 417,500 254,500C165,500 98,475 64,456l28,-97C124,378 177,395 227,395C302,395 316,358 316,332l0,-6C143,326 29,266 29,139C29,61 88,-11 187,-11C245,-11 295,10 327,49l3,0l9,-49l137,0C470,27 468,72 468,118M321,178C321,169 320,160 318,152C308,121 276,96 239,96C205,96 179,115 179,154C179,212 241,231 321,231M281,700l-86,-152l104,0l122,152z"
   id="glyph40588" />
<glyph
   unicode="â"
   horiz-adv-x="528"
   d="M468,289C468,404 417,500 254,500C165,500 98,475 64,456l28,-97C124,378 177,395 227,395C302,395 316,358 316,332l0,-6C143,326 29,266 29,139C29,61 88,-11 187,-11C245,-11 295,10 327,49l3,0l9,-49l137,0C470,27 468,72 468,118M321,178C321,169 320,160 318,152C308,121 276,96 239,96C205,96 179,115 179,154C179,212 241,231 321,231M212,700l-99,-152l96,0l50,86l2,0l50,-86l96,0l-99,152z"
   id="glyph40590" />
<glyph
   unicode="´"
   horiz-adv-x="300"
   d="M161,700l-86,-152l104,0l122,152z"
   id="glyph40592" />
<glyph
   unicode="ä"
   horiz-adv-x="528"
   d="M468,289C468,404 417,500 254,500C165,500 98,475 64,456l28,-97C124,378 177,395 227,395C302,395 316,358 316,332l0,-6C143,326 29,266 29,139C29,61 88,-11 187,-11C245,-11 295,10 327,49l3,0l9,-49l137,0C470,27 468,72 468,118M321,178C321,169 320,160 318,152C308,121 276,96 239,96C205,96 179,115 179,154C179,212 241,231 321,231M163,547C201,547 229,578 229,615C229,654 201,683 163,683C124,683 94,654 94,615C94,578 124,547 162,547M366,547C405,547 433,578 433,615C433,654 405,683 366,683C327,683 298,654 298,615C298,578 326,547 365,547z"
   id="glyph40594" />
<glyph
   unicode="æ"
   horiz-adv-x="803"
   d="M769,203C770,216 773,239 773,259C773,376 713,501 568,501C496,501 439,472 401,422l-3,0C369,472 316,501 237,501C164,501 100,475 64,455l30,-96C124,377 174,395 224,395C302,395 318,351 318,337l0,-14C145,324 29,263 29,143C29,59 91,-10 198,-10C283,-10 342,25 380,77l3,0C417,21 489,-10 570,-10C631,-10 696,-1 750,27l-21,101C691,113 653,102 592,102C515,102 462,141 460,204M322,178C322,167 321,156 318,148C306,120 279,96 240,96C206,96 178,116 178,154C178,210 240,231 322,230M459,307C460,342 486,401 550,401C620,401 634,338 633,307z"
   id="glyph40596" />
<glyph
   unicode="à"
   horiz-adv-x="528"
   d="M468,289C468,404 417,500 254,500C165,500 98,475 64,456l28,-97C124,378 177,395 227,395C302,395 316,358 316,332l0,-6C143,326 29,266 29,139C29,61 88,-11 187,-11C245,-11 295,10 327,49l3,0l9,-49l137,0C470,27 468,72 468,118M321,178C321,169 320,160 318,152C308,121 276,96 239,96C205,96 179,115 179,154C179,212 241,231 321,231M100,700l122,-152l104,0l-86,152z"
   id="glyph40598" />
<glyph
   unicode="&amp;"
   horiz-adv-x="678"
   d="M672,0C630,45 591,89 553,132C613,199 647,286 665,388l-136,0C520,328 499,266 472,224C439,258 398,307 360,350l0,4C453,401 493,459 493,527C493,624 415,685 311,685C175,685 108,593 108,507C108,459 130,409 159,377l0,-3C82,333 31,269 31,180C31,85 103,-11 266,-11C346,-11 407,14 451,48C467,30 481,15 495,0M287,99C217,99 174,147 174,205C174,249 200,278 228,298C283,236 338,174 380,133C360,114 327,99 288,99M306,590C346,590 365,555 365,523C365,484 340,458 291,424C260,457 245,487 245,521C245,557 266,590 305,590z"
   id="glyph40600" />
<glyph
   unicode="å"
   horiz-adv-x="528"
   d="M468,289C468,404 417,500 254,500C165,500 98,475 64,456l28,-97C124,378 177,395 227,395C302,395 316,358 316,332l0,-6C143,326 29,266 29,139C29,61 88,-11 187,-11C245,-11 295,10 327,49l3,0l9,-49l137,0C470,27 468,72 468,118M321,178C321,169 320,160 318,152C308,121 276,96 239,96C205,96 179,115 179,154C179,212 241,231 321,231M266,735C192,735 151,691 151,635C151,580 195,538 266,538C335,538 379,580 379,636C379,692 340,735 267,735M266,685C295,685 311,661 311,636C311,610 295,588 265,588C237,588 221,612 221,635C221,661 236,685 265,685z"
   id="glyph40602" />
<glyph
   unicode="^"
   horiz-adv-x="596"
   d="M554,177l-209,473l-93,0l-209,-473l107,0l146,356l3,0l146,-356z"
   id="glyph40604" />
<glyph
   unicode="~"
   horiz-adv-x="596"
   d="M138,193C142,257 160,274 185,274C209,274 236,258 280,233C334,202 372,185 420,185C496,185 559,231 553,373l-95,0C456,313 441,292 418,292C393,292 366,307 322,331C265,363 231,379 182,379C101,379 42,326 43,193z"
   id="glyph40606" />
<glyph
   unicode="*"
   horiz-adv-x="454"
   d="M285,685l-58,-154l-2,0l-55,154l-89,-51l105,-127l0,-2l-156,32l0,-101l157,28l1,-2l-107,-125l86,-51l57,153l2,1l58,-154l88,51l-108,124l0,2l161,-27l0,101l-160,-32l0,2l107,128z"
   id="glyph40608" />
<glyph
   unicode="@"
   horiz-adv-x="770"
   d="M442,343C434,285 395,238 357,238C325,238 308,262 308,300C308,377 360,442 426,442C438,442 449,440 457,438M528,82C488,62 433,51 382,51C233,51 127,145 127,313C127,505 260,624 414,624C569,624 653,524 653,393C653,277 599,222 556,224C528,225 521,252 530,311l30,186C536,510 486,521 442,521C298,521 207,411 207,288C207,206 255,157 319,157C373,157 417,184 449,234l2,0C456,182 490,157 537,157C645,157 727,249 727,396C727,564 601,685 424,685C199,685 50,508 50,304C50,108 196,-11 362,-11C433,-11 485,-2 545,25z"
   id="glyph40610" />
<glyph
   unicode="ã"
   horiz-adv-x="528"
   d="M468,289C468,404 417,500 254,500C165,500 98,475 64,456l28,-97C124,378 177,395 227,395C302,395 316,358 316,332l0,-6C143,326 29,266 29,139C29,61 88,-11 187,-11C245,-11 295,10 327,49l3,0l9,-49l137,0C470,27 468,72 468,118M321,178C321,169 320,160 318,152C308,121 276,96 239,96C205,96 179,115 179,154C179,212 241,231 321,231M184,556C186,586 195,601 208,601C220,601 229,596 247,586C268,574 288,563 317,563C368,563 397,599 395,685l-66,0C326,651 319,641 302,641C289,641 275,650 259,660C240,670 221,681 193,681C143,681 114,635 116,556z"
   id="glyph40612" />
<glyph
   unicode="b"
   horiz-adv-x="598"
   d="M61,146C61,91 59,32 57,0l129,0l6,68l2,0C228,10 284,-11 341,-11C453,-11 564,77 564,253C565,403 480,500 363,500C295,500 244,473 215,431l-2,0l0,279l-152,0M213,280C213,290 214,299 216,308C226,352 264,383 305,383C376,383 410,323 410,247C410,159 370,109 305,109C261,109 226,141 216,181C214,189 213,198 213,208z"
   id="glyph40614" />
<glyph
   unicode="\"
   horiz-adv-x="342"
   d="M326,-40l-213,725l-101,0l213,-725z"
   id="glyph40616" />
<glyph
   unicode="|"
   horiz-adv-x="283"
   d="M88,750l0,-1000l106,0l0,1000z"
   id="glyph40618" />
<glyph
   unicode="{"
   horiz-adv-x="314"
   d="M30,249C99,246 106,208 106,181C106,156 103,130 101,103C98,76 95,49 95,24C95,-76 157,-112 246,-112l36,0l0,84l-18,0C218,-27 203,0 203,44C203,61 205,80 208,100C210,121 213,144 213,170C214,246 183,275 128,286l0,2C183,300 214,329 213,404C213,430 210,452 208,473C205,493 203,512 203,529C203,573 219,599 264,600l18,0l0,85l-35,0C154,685 95,644 95,550C95,525 98,498 101,471C103,445 106,418 106,393C106,364 99,328 30,325z"
   id="glyph40620" />
<glyph
   unicode="}"
   horiz-adv-x="314"
   d="M284,325C215,328 208,364 208,393C208,418 211,445 214,471C216,498 219,525 219,550C219,644 160,685 67,685l-35,0l0,-85l18,0C95,599 111,573 111,529C111,512 109,493 106,473C104,452 101,430 101,404C100,329 131,300 186,288l0,-2C131,275 100,246 101,170C101,144 104,121 106,100C109,80 111,61 111,44C111,0 96,-27 50,-28l-18,0l0,-84l36,0C157,-112 219,-76 219,24C219,49 216,76 214,103C211,130 208,156 208,181C208,208 215,246 284,249z"
   id="glyph40622" />
<glyph
   unicode="["
   horiz-adv-x="314"
   d="M272,-112l0,84l-95,0l0,629l95,0l0,84l-204,0l0,-797z"
   id="glyph40624" />
<glyph
   unicode="]"
   horiz-adv-x="314"
   d="M42,685l0,-84l95,0l0,-629l-95,0l0,-84l204,0l0,797z"
   id="glyph40626" />
<glyph
   unicode="˘"
   horiz-adv-x="300"
   d="M21,688C22,616 59,560 150,560C237,560 279,613 280,688l-73,0C205,660 191,628 149,628C114,628 98,655 94,688z"
   id="glyph40628" />
<glyph
   unicode="¦"
   horiz-adv-x="283"
   d="M88,174l0,-350l106,0l0,350M88,674l0,-350l106,0l0,350z"
   id="glyph40630" />
<glyph
   unicode="•"
   horiz-adv-x="338"
   d="M169,213C242,213 299,270 299,343C299,417 241,474 169,474C97,474 38,417 39,343C39,269 97,213 168,213z"
   id="glyph40632" />
<glyph
   unicode="c"
   horiz-adv-x="451"
   d="M410,124C387,114 359,108 323,108C249,108 189,156 189,246C188,326 240,383 320,383C360,383 387,376 405,368l24,113C397,493 353,500 313,500C131,500 33,383 33,240C33,86 134,-11 292,-11C350,-11 401,-1 428,12z"
   id="glyph40634" />
<glyph
   unicode="ˇ"
   horiz-adv-x="300"
   d="M201,548l99,152l-98,0l-51,-88l-2,0l-51,88l-98,0l99,-152z"
   id="glyph40636" />
<glyph
   unicode="ç"
   horiz-adv-x="451"
   d="M411,124C387,114 359,108 323,108C249,108 189,156 189,246C188,326 240,383 320,383C361,383 387,376 406,367l23,114C398,493 353,500 313,500C131,500 33,383 33,241C33,108 108,16 232,-5l-39,-77C248,-86 271,-99 271,-118C271,-138 253,-144 235,-144C220,-144 198,-138 181,-128l-20,-56C180,-196 209,-204 241,-204C305,-204 363,-182 363,-117C363,-76 328,-49 291,-44l19,34C361,-9 404,1 431,12z"
   id="glyph40638" />
<glyph
   unicode="¸"
   horiz-adv-x="300"
   d="M121,4l-43,-86C133,-86 156,-99 156,-118C156,-137 138,-144 121,-144C105,-144 83,-138 66,-128l-20,-56C66,-196 94,-204 126,-204C190,-204 248,-182 248,-117C248,-76 213,-49 176,-44l27,48z"
   id="glyph40640" />
<glyph
   unicode="¢"
   horiz-adv-x="555"
   d="M377,-11l0,95C417,87 453,96 477,107l-18,110C433,207 402,199 360,199C290,199 230,244 230,333C230,414 280,468 359,468C398,468 427,461 448,450l24,112C445,573 409,581 377,582l0,91l-98,0l0,-96C147,552 75,448 75,328C75,262 95,204 130,163C166,123 215,96 279,87l0,-98z"
   id="glyph40642" />
<glyph
   unicode="ˆ"
   horiz-adv-x="300"
   d="M102,700l-99,-152l96,0l50,86l2,0l50,-86l96,0l-99,152z"
   id="glyph40644" />
<glyph
   unicode=":"
   horiz-adv-x="260"
   d="M140,312C194,312 229,351 229,403C228,458 193,495 140,495C88,495 51,457 51,403C51,351 87,312 139,312M139,-11C193,-11 228,28 228,80C227,135 192,172 139,172C87,172 50,134 50,80C50,28 86,-11 138,-11z"
   id="glyph40646" />
<glyph
   unicode=","
   horiz-adv-x="260"
   d="M103,-110C151,-32 196,73 229,175l-155,-10C60,74 33,-30 1,-119z"
   id="glyph40648" />
<glyph
   unicode="©"
   horiz-adv-x="677"
   d="M340,648C169,648 32,510 32,340C32,168 169,30 340,30C510,30 645,168 645,340C645,510 510,648 341,648M340,591C473,591 580,479 580,339C580,198 473,86 340,87C206,87 99,198 99,339C99,479 206,591 339,591M474,492C461,506 412,520 363,520C263,520 170,449 170,334C170,232 238,153 354,153C395,153 443,162 478,185l-15,52C441,222 403,212 363,212C290,212 240,265 240,337C240,415 286,461 363,461C408,461 447,446 459,438z"
   id="glyph40650" />
<glyph
   unicode="¤"
   horiz-adv-x="555"
   d="M277,550C232,550 192,537 162,513l-77,85l-67,-69l87,-77C88,426 70,389 70,333C70,278 88,239 106,214l-83,-79l65,-67l72,86C189,129 235,116 276,116C316,116 362,130 393,156l73,-88l66,67l-85,81C465,241 482,280 482,336C482,390 465,426 450,452l87,78l-67,68l-76,-84C364,537 324,550 278,550M277,448C331,448 369,400 369,335C369,254 322,218 277,218C235,218 185,255 185,334C185,403 225,448 276,448z"
   id="glyph40652" />
<glyph
   unicode="d"
   horiz-adv-x="596"
   d="M383,710l0,-265l-2,0C359,478 313,500 252,500C135,500 32,404 33,240C33,88 126,-11 242,-11C305,-11 365,17 395,71l3,0l6,-71l135,0C537,33 535,90 535,146l0,564M383,217C383,205 382,193 380,183C371,140 335,110 291,110C228,110 187,162 187,244C187,321 222,383 292,383C339,383 372,350 381,309C383,300 383,290 383,281z"
   id="glyph40654" />
<glyph
   unicode="†"
   horiz-adv-x="524"
   d="M192,674l14,-201l-172,12l0,-118l172,13l-14,-430l139,0l-14,430l172,-13l0,118l-172,-12l14,201z"
   id="glyph40656" />
<glyph
   unicode="‡"
   horiz-adv-x="524"
   d="M194,674l10,-185l-170,11l0,-118l170,13l0,-158l-170,12l0,-118l170,12l-10,-193l136,0l-11,193l170,-12l0,118l-170,-12l0,158l170,-13l0,118l-170,-11l10,185z"
   id="glyph40658" />
<glyph
   unicode="°"
   horiz-adv-x="356"
   d="M179,685C94,685 26,619 27,536C27,456 90,391 178,391C260,391 331,453 331,539C331,617 270,685 180,685M180,615C227,615 252,577 252,538C252,494 222,461 180,461C139,461 108,494 108,537C108,578 136,615 179,615z"
   id="glyph40660" />
<glyph
   unicode="¨"
   horiz-adv-x="300"
   d="M49,547C87,547 115,578 115,615C115,654 87,683 49,683C10,683 -20,654 -20,615C-20,578 10,547 48,547M252,547C291,547 319,578 319,615C319,654 291,683 252,683C213,683 184,654 184,615C184,578 212,547 251,547z"
   id="glyph40662" />
<glyph
   unicode="÷"
   horiz-adv-x="596"
   d="M298,368C342,368 371,398 371,442C370,487 342,516 298,516C255,516 225,487 225,442C225,398 254,368 297,368M555,220l0,93l-516,0l0,-93M297,17C341,17 370,47 370,91C369,136 341,165 297,165C254,165 224,136 224,91C224,47 253,17 296,17z"
   id="glyph40664" />
<glyph
   unicode="$"
   horiz-adv-x="555"
   d="M323,-87l0,103C439,36 501,111 501,200C501,291 454,346 334,388C249,419 214,441 214,473C214,501 235,530 300,530C372,530 419,507 444,495l30,113C440,624 395,639 328,641l0,88l-98,0l0,-95C123,614 61,545 61,456C61,359 134,309 241,273C315,248 348,224 348,186C348,147 308,124 251,124C186,124 127,145 85,168l-30,-117C93,30 158,11 225,9l0,-96z"
   id="glyph40666" />
<glyph
   unicode="˙"
   horiz-adv-x="300"
   d="M122,547C160,547 188,578 188,615C188,654 160,683 122,683C83,683 53,654 53,615C53,578 83,547 121,547z"
   id="glyph40668" />
<glyph
   unicode="ı"
   horiz-adv-x="274"
   d="M213,0l0,489l-152,0l0,-489z"
   id="glyph40670" />
<glyph
   unicode="e"
   horiz-adv-x="528"
   d="M493,196C495,208 498,231 498,257C498,378 438,501 280,501C111,501 33,364 33,240C33,86 128,-10 294,-10C360,-10 421,0 471,21l-20,103C410,110 368,103 316,103C245,103 183,133 178,197M177,301C181,341 207,400 272,400C341,400 357,337 357,301z"
   id="glyph40672" />
<glyph
   unicode="é"
   horiz-adv-x="528"
   d="M493,196C495,208 498,231 498,257C498,378 438,501 280,501C111,501 33,364 33,240C33,86 128,-10 294,-10C360,-10 421,0 471,21l-20,103C410,110 368,103 316,103C245,103 183,133 178,197M177,301C181,341 207,400 272,400C341,400 357,337 357,301M301,700l-86,-152l104,0l122,152z"
   id="glyph40674" />
<glyph
   unicode="ê"
   horiz-adv-x="528"
   d="M493,196C495,208 498,231 498,257C498,378 438,501 280,501C111,501 33,364 33,240C33,86 128,-10 294,-10C360,-10 421,0 471,21l-20,103C410,110 368,103 316,103C245,103 183,133 178,197M177,301C181,341 207,400 272,400C341,400 357,337 357,301M227,700l-99,-152l96,0l50,86l2,0l50,-86l96,0l-99,152z"
   id="glyph40676" />
<glyph
   unicode="ë"
   horiz-adv-x="528"
   d="M493,196C495,208 498,231 498,257C498,378 438,501 280,501C111,501 33,364 33,240C33,86 128,-10 294,-10C360,-10 421,0 471,21l-20,103C410,110 368,103 316,103C245,103 183,133 178,197M177,301C181,341 207,400 272,400C341,400 357,337 357,301M180,547C218,547 246,578 246,615C246,654 218,683 180,683C141,683 111,654 111,615C111,578 141,547 179,547M383,547C422,547 450,578 450,615C450,654 422,683 383,683C344,683 315,654 315,615C315,578 343,547 382,547z"
   id="glyph40678" />
<glyph
   unicode="è"
   horiz-adv-x="528"
   d="M493,196C495,208 498,231 498,257C498,378 438,501 280,501C111,501 33,364 33,240C33,86 128,-10 294,-10C360,-10 421,0 471,21l-20,103C410,110 368,103 316,103C245,103 183,133 178,197M177,301C181,341 207,400 272,400C341,400 357,337 357,301M120,700l122,-152l104,0l-86,152z"
   id="glyph40680" />
<glyph
   unicode="8"
   horiz-adv-x="555"
   d="M282,661C153,661 54,588 54,478C54,421 85,368 148,335l0,-2C77,302 32,248 32,170C32,82 108,-11 273,-11C424,-11 523,69 523,187C523,270 467,324 403,348l0,3C468,383 498,438 498,494C498,573 435,661 283,661M279,94C223,94 187,138 188,185C188,232 217,268 267,282C326,266 369,232 369,175C369,129 333,94 280,94M279,558C334,558 357,518 357,477C357,437 326,405 291,395C239,411 200,439 200,483C200,523 226,558 278,558z"
   id="glyph40682" />
<glyph
   unicode="…"
   horiz-adv-x="1000"
   d="M166,-11C220,-11 256,28 256,81C255,137 219,174 167,174C114,174 77,136 77,81C77,28 114,-11 165,-11M499,-11C553,-11 589,28 589,81C588,137 552,174 500,174C447,174 410,136 410,81C410,28 447,-11 498,-11M832,-11C886,-11 922,28 922,81C921,137 885,174 833,174C780,174 743,136 743,81C743,28 780,-11 831,-11z"
   id="glyph40684" />
<glyph
   unicode="—"
   horiz-adv-x="1000"
   d="M30,301l0,-94l940,0l0,94z"
   id="glyph40686" />
<glyph
   unicode="–"
   horiz-adv-x="500"
   d="M30,301l0,-94l440,0l0,94z"
   id="glyph40688" />
<glyph
   unicode="="
   horiz-adv-x="596"
   d="M556,325l0,93l-516,0l0,-93M556,118l0,93l-516,0l0,-93z"
   id="glyph40690" />
<glyph
   unicode="ð"
   horiz-adv-x="574"
   d="M287,98C224,98 190,162 190,238C190,299 214,380 289,380C321,380 344,367 360,347C377,326 384,294 384,242C384,157 351,98 288,98M108,478l144,62C286,517 315,488 339,456l-2,-3C313,470 291,474 266,473C140,470 34,380 34,237C34,85 144,-11 287,-11C416,-11 542,72 542,257C542,326 529,389 501,443C472,501 430,553 379,594l105,46l-30,58l-138,-59C267,671 211,699 158,718l-65,-85C125,619 157,604 186,585l-105,-47z"
   id="glyph40692" />
<glyph
   unicode="!"
   horiz-adv-x="268"
   d="M191,221l22,453l-158,0l22,-453M134,-11C188,-11 223,28 223,80C222,134 187,171 134,171C81,171 44,134 44,80C44,28 80,-11 133,-11z"
   id="glyph40694" />
<glyph
   unicode="¡"
   horiz-adv-x="268"
   d="M213,-191l-22,451l-114,0l-22,-451M135,493C82,493 45,455 45,402C45,349 81,311 135,311C189,311 223,349 224,402C224,455 188,493 136,493z"
   id="glyph40696" />
<glyph
   unicode="f"
   horiz-adv-x="341"
   d="M231,0l0,377l97,0l0,112l-98,0l0,25C230,562 251,601 301,601C321,601 337,598 350,594l6,117C335,716 309,721 276,721C231,721 179,708 140,672C97,632 79,567 79,508l0,-19l-65,0l0,-112l65,0l0,-377z"
   id="glyph40698" />
<glyph
   unicode="ﬁ"
   horiz-adv-x="588"
   d="M231,0l0,377l144,0l0,-377l152,0l0,489l-297,0l0,17C230,560 258,601 338,601C386,601 425,589 449,576l29,115C448,709 386,721 334,721C183,721 79,645 79,510l0,-21l-65,0l0,-112l65,0l0,-377z"
   id="glyph40700" />
<glyph
   unicode="5"
   horiz-adv-x="555"
   d="M476,650l-358,0l-42,-340C102,314 127,316 163,316C293,316 346,275 346,207C346,138 279,108 216,108C157,108 98,126 70,140l-28,-114C78,7 144,-11 223,-11C398,-11 502,96 502,217C502,294 472,348 423,381C378,414 314,428 252,428C236,428 224,427 210,426l14,99l252,0z"
   id="glyph40702" />
<glyph
   unicode="ﬂ"
   horiz-adv-x="588"
   d="M231,0l0,377l88,0l0,112l-89,0l0,19C230,564 256,608 317,608C345,608 364,604 375,598l0,-598l152,0l0,680C478,706 412,721 339,721C261,721 201,704 153,666C106,628 79,566 79,510l0,-21l-65,0l0,-112l65,0l0,-377z"
   id="glyph40704" />
<glyph
   unicode="ƒ"
   horiz-adv-x="555"
   d="M114,306l79,0l-16,-140C162,52 145,24 96,23C79,24 63,26 49,32l-22,-106C43,-82 77,-90 118,-91C260,-91 301,5 316,127l23,179l114,0l0,105l-102,0l6,44C363,510 387,546 437,546C456,546 472,542 484,537l24,108C491,654 459,661 425,661C253,661 217,511 209,444l-4,-33l-91,0z"
   id="glyph40706" />
<glyph
   unicode="4"
   horiz-adv-x="555"
   d="M455,0l0,155l77,0l0,114l-77,0l0,381l-187,0l-245,-396l0,-99l288,0l0,-155M164,269l1,2l86,142C273,454 291,492 312,534l3,0C313,492 311,452 311,413l0,-144z"
   id="glyph40708" />
<glyph
   unicode="⁄"
   horiz-adv-x="424"
   d="M69,-11l369,672l-83,0l-369,-672z"
   id="glyph40710" />
<glyph
   unicode="g"
   horiz-adv-x="585"
   d="M524,343C524,416 526,457 528,489l-132,0l-5,-58l-2,0C364,471 322,500 255,500C134,500 33,400 33,242C33,102 119,4 240,4C296,4 343,27 372,67l2,0l0,-31C374,-55 319,-93 247,-93C189,-93 136,-74 105,-56l-30,-116C119,-196 186,-209 251,-209C323,-209 396,-195 449,-149C505,-100 524,-23 524,71M372,218C372,205 371,189 367,177C357,142 326,116 286,116C223,116 187,173 187,246C187,335 231,385 287,385C329,385 358,358 369,318C371,309 372,299 372,290z"
   id="glyph40712" />
<glyph
   unicode="ß"
   horiz-adv-x="600"
   d="M213,0l0,444C213,565 253,605 309,605C357,605 386,570 386,525C386,511 384,500 379,489C327,461 299,415 299,365C299,300 343,257 376,223C400,197 412,179 412,154C412,125 388,103 345,103C318,103 294,108 276,117l-19,-112C285,-6 327,-11 364,-11C492,-11 565,59 565,161C565,237 520,282 487,318C463,343 452,361 452,384C452,409 470,435 510,454C524,473 533,506 533,536C533,649 439,721 318,721C241,721 181,699 138,658C89,613 61,545 61,431l0,-431z"
   id="glyph40714" />
<glyph
   unicode="`"
   horiz-adv-x="300"
   d="M4,700l122,-152l104,0l-86,152z"
   id="glyph40716" />
<glyph
   unicode="&gt;"
   horiz-adv-x="596"
   d="M538,311l-481,220l0,-106l372,-159l0,-2l-372,-159l0,-105l481,219z"
   id="glyph40718" />
<glyph
   unicode="«"
   horiz-adv-x="465"
   d="M248,443l-106,0l-116,-191l116,-190l106,0l-120,190M442,443l-106,0l-116,-191l116,-190l106,0l-120,190z"
   id="glyph40720" />
<glyph
   unicode="»"
   horiz-adv-x="465"
   d="M142,252l-119,-190l105,0l116,190l-117,191l-104,0M334,252l-119,-190l104,0l117,190l-117,191l-104,0z"
   id="glyph40722" />
<glyph
   unicode="‹"
   horiz-adv-x="270"
   d="M248,443l-106,0l-116,-191l116,-190l106,0l-120,190z"
   id="glyph40724" />
<glyph
   unicode="›"
   horiz-adv-x="270"
   d="M142,252l-120,-190l105,0l117,190l-117,191l-105,0z"
   id="glyph40726" />
<glyph
   unicode="h"
   horiz-adv-x="586"
   d="M61,0l152,0l0,290C213,301 214,314 218,323C229,351 254,377 294,377C351,377 373,333 373,269l0,-269l152,0l0,285C525,433 451,500 354,500C326,500 298,493 275,481C251,469 231,452 215,430l-2,0l0,280l-152,0z"
   id="glyph40728" />
<glyph
   unicode="˝"
   horiz-adv-x="300"
   d="M62,700l-63,-148l84,0l98,148M234,700l-63,-148l84,0l98,148z"
   id="glyph40730" />
<glyph
   unicode="-"
   horiz-adv-x="322"
   d="M30,313l0,-101l262,0l0,101z"
   id="glyph40732" />
<glyph
   unicode="i"
   horiz-adv-x="274"
   d="M213,0l0,489l-152,0l0,-489M137,553C190,553 223,589 223,634C222,680 190,715 138,715C86,715 52,680 52,634C52,589 85,553 136,553z"
   id="glyph40734" />
<glyph
   unicode="í"
   horiz-adv-x="274"
   d="M213,0l0,489l-152,0l0,-489M160,700l-86,-152l104,0l122,152z"
   id="glyph40736" />
<glyph
   unicode="î"
   horiz-adv-x="274"
   d="M213,0l0,489l-152,0l0,-489M89,700l-99,-152l96,0l50,86l2,0l50,-86l96,0l-99,152z"
   id="glyph40738" />
<glyph
   unicode="ï"
   horiz-adv-x="274"
   d="M213,0l0,489l-152,0l0,-489M36,547C74,547 102,578 102,615C102,654 74,683 36,683C-3,683 -33,654 -33,615C-33,578 -3,547 35,547M239,547C278,547 306,578 306,615C306,654 278,683 239,683C200,683 171,654 171,615C171,578 199,547 238,547z"
   id="glyph40740" />
<glyph
   unicode="ì"
   horiz-adv-x="274"
   d="M213,0l0,489l-152,0l0,-489M-31,700l122,-152l104,0l-86,152z"
   id="glyph40742" />
<glyph
   unicode="j"
   horiz-adv-x="291"
   d="M-24,-214C48,-214 119,-195 164,-154C210,-112 233,-47 233,59l0,430l-152,0l0,-393C81,-1 73,-40 51,-63C32,-83 0,-92 -39,-95M156,553C209,553 242,589 242,634C241,680 209,715 157,715C105,715 71,680 71,634C71,589 104,553 155,553z"
   id="glyph40744" />
<glyph
   unicode="k"
   horiz-adv-x="542"
   d="M213,710l-152,0l0,-710l152,0l0,152l38,49l119,-201l187,0l-200,291l175,198l-183,0l-99,-148C238,323 226,303 215,282l-2,0z"
   id="glyph40746" />
<glyph
   unicode="l"
   horiz-adv-x="274"
   d="M61,0l152,0l0,710l-152,0z"
   id="glyph40748" />
<glyph
   unicode="&lt;"
   horiz-adv-x="596"
   d="M58,222l481,-222l0,106l-364,158l0,2l364,159l0,106l-481,-223z"
   id="glyph40750" />
<glyph
   unicode="¬"
   horiz-adv-x="596"
   d="M40,422l0,-93l419,0l0,-223l97,0l0,316z"
   id="glyph40752" />
<glyph
   unicode="ł"
   horiz-adv-x="287"
   d="M219,0l0,342l71,57l0,109l-71,-57l0,259l-152,0l0,-372l-65,-52l0,-108l65,51l0,-229z"
   id="glyph40754" />
<glyph
   unicode="m"
   horiz-adv-x="860"
   d="M61,0l148,0l0,284C209,297 210,311 215,323C224,347 247,377 286,377C335,377 357,335 357,274l0,-274l148,0l0,286C505,298 507,313 510,324C521,353 545,377 581,377C630,377 653,336 653,265l0,-265l148,0l0,288C801,434 730,500 636,500C600,500 570,491 543,476C519,462 498,442 479,416l-2,0C456,467 407,500 343,500C260,500 216,454 195,422l-3,0l-6,67l-129,0C59,445 61,394 61,333z"
   id="glyph40756" />
<glyph
   unicode="¯"
   horiz-adv-x="300"
   d="M26,661l0,-78l250,0l0,78z"
   id="glyph40758" />
<glyph
   unicode="−"
   horiz-adv-x="596"
   d="M40,314l0,-93l516,0l0,93z"
   id="glyph40760" />
<glyph
   unicode="µ"
   horiz-adv-x="583"
   d="M522,489l-152,0l0,-304C364,154 336,114 289,114C231,114 211,160 211,228l0,261l-152,0l0,-687l136,0l-12,221l3,0C204,-1 233,-8 259,-8C327,-8 368,42 384,71l3,0l7,-71l132,0C524,41 522,93 522,157z"
   id="glyph40762" />
<glyph
   unicode="×"
   horiz-adv-x="596"
   d="M40,459l192,-196l-192,-196l66,-67l192,196l192,-196l66,67l-192,196l192,196l-65,67l-193,-197l-193,197z"
   id="glyph40764" />
<glyph
   unicode="n"
   horiz-adv-x="586"
   d="M61,0l152,0l0,282C213,296 214,310 218,320C229,348 254,377 296,377C351,377 373,334 373,271l0,-271l152,0l0,289C525,433 450,500 350,500C268,500 219,453 199,421l-3,0l-7,68l-132,0C59,445 61,394 61,333z"
   id="glyph40766" />
<glyph
   unicode="9"
   horiz-adv-x="555"
   d="M89,-9C107,-10 133,-11 158,-9C260,-5 346,25 408,82C478,147 521,245 521,381C521,533 442,661 275,661C132,661 30,554 30,427C30,300 122,224 232,224C292,224 334,241 364,271l2,-1C355,221 327,178 284,150C249,126 202,112 155,110C125,108 109,107 89,110M271,550C340,550 367,482 366,413C366,394 364,384 359,374C344,351 316,332 273,332C212,332 181,380 181,436C181,504 219,550 270,550z"
   id="glyph40768" />
<glyph
   unicode="ñ"
   horiz-adv-x="586"
   d="M61,0l152,0l0,282C213,296 214,310 218,320C229,348 254,377 296,377C351,377 373,334 373,271l0,-271l152,0l0,289C525,433 450,500 350,500C268,500 219,453 199,421l-3,0l-7,68l-132,0C59,445 61,394 61,333M224,556C226,586 235,601 248,601C260,601 269,596 287,586C308,574 328,563 357,563C408,563 437,599 435,685l-66,0C366,651 359,641 342,641C329,641 315,650 299,660C280,670 261,681 233,681C183,681 154,635 156,556z"
   id="glyph40770" />
<glyph
   unicode="#"
   horiz-adv-x="550"
   d="M223,271l16,113l91,0l-15,-113M183,0l25,179l91,0l-26,-179l90,0l25,179l98,0l0,92l-82,0l15,113l95,0l0,92l-80,0l25,174l-89,0l-25,-174l-92,0l25,174l-88,0l-26,-174l-98,0l0,-92l84,0l-16,-113l-97,0l0,-92l82,0l-26,-179z"
   id="glyph40772" />
<glyph
   unicode="o"
   horiz-adv-x="577"
   d="M287,-11C417,-11 544,71 544,249C544,397 444,500 295,500C137,500 33,399 33,241C33,83 143,-11 286,-11M288,98C224,98 189,161 189,244C189,317 217,391 289,391C358,391 386,317 386,245C386,157 349,98 289,98z"
   id="glyph40774" />
<glyph
   unicode="ó"
   horiz-adv-x="577"
   d="M287,-11C417,-11 544,71 544,249C544,397 444,500 295,500C137,500 33,399 33,241C33,83 143,-11 286,-11M288,98C224,98 189,161 189,244C189,317 217,391 289,391C358,391 386,317 386,245C386,157 349,98 289,98M308,700l-86,-152l104,0l122,152z"
   id="glyph40776" />
<glyph
   unicode="ô"
   horiz-adv-x="577"
   d="M287,-11C417,-11 544,71 544,249C544,397 444,500 295,500C137,500 33,399 33,241C33,83 143,-11 286,-11M288,98C224,98 189,161 189,244C189,317 217,391 289,391C358,391 386,317 386,245C386,157 349,98 289,98M241,700l-99,-152l96,0l50,86l2,0l50,-86l96,0l-99,152z"
   id="glyph40778" />
<glyph
   unicode="ö"
   horiz-adv-x="577"
   d="M287,-11C417,-11 544,71 544,249C544,397 444,500 295,500C137,500 33,399 33,241C33,83 143,-11 286,-11M288,98C224,98 189,161 189,244C189,317 217,391 289,391C358,391 386,317 386,245C386,157 349,98 289,98M188,547C226,547 254,578 254,615C254,654 226,683 188,683C149,683 119,654 119,615C119,578 149,547 187,547M391,547C430,547 458,578 458,615C458,654 430,683 391,683C352,683 323,654 323,615C323,578 351,547 390,547z"
   id="glyph40780" />
<glyph
   unicode="œ"
   horiz-adv-x="868"
   d="M835,199C836,210 839,235 839,258C839,377 781,501 626,501C557,501 495,471 456,414l-2,0C421,471 353,501 282,501C137,501 33,398 33,245C33,85 140,-10 272,-10C345,-10 414,17 455,77l3,0C502,13 567,-10 638,-10C685,-10 762,-3 816,27l-21,102C755,114 717,103 659,103C588,103 530,140 526,200M290,392C356,392 385,323 385,247C385,158 350,99 288,99C225,99 190,163 190,246C190,314 213,392 289,392M523,303C524,341 550,399 612,399C686,399 697,337 697,303z"
   id="glyph40782" />
<glyph
   unicode="˛"
   horiz-adv-x="300"
   d="M155,0C116,-15 57,-65 57,-121C57,-173 96,-202 151,-202C187,-202 214,-195 235,-185l-10,55C208,-137 191,-141 176,-141C153,-141 135,-126 136,-103C135,-71 177,-26 229,0z"
   id="glyph40784" />
<glyph
   unicode="ò"
   horiz-adv-x="577"
   d="M287,-11C417,-11 544,71 544,249C544,397 444,500 295,500C137,500 33,399 33,241C33,83 143,-11 286,-11M288,98C224,98 189,161 189,244C189,317 217,391 289,391C358,391 386,317 386,245C386,157 349,98 289,98M133,700l122,-152l104,0l-86,152z"
   id="glyph40786" />
<glyph
   unicode="1"
   horiz-adv-x="555"
   d="M236,0l147,0l0,650l-125,0l-173,-80l25,-114l124,59l2,0z"
   id="glyph40788" />
<glyph
   unicode="½"
   horiz-adv-x="831"
   d="M237,266l0,390l-102,0l-111,-48l15,-82l80,35l1,0l0,-295M233,-11l368,672l-83,0l-368,-672M485,0l308,0l0,87l-146,0l0,2l24,20C731,157 786,203 786,274C786,342 733,395 634,395C573,395 521,376 488,352l30,-76C540,291 571,304 604,304C642,304 663,284 663,256C663,213 622,179 547,112l-62,-55z"
   id="glyph40790" />
<glyph
   unicode="¼"
   horiz-adv-x="831"
   d="M743,0l0,90l53,0l0,74l-53,0l0,230l-133,0l-171,-241l0,-63l196,0l0,-90M635,164l-88,0l-2,1l56,82C613,266 624,288 637,312l2,0C638,288 635,264 635,238M249,266l0,390l-102,0l-111,-48l15,-82l80,35l1,0l0,-295M256,-11l369,672l-83,0l-369,-672z"
   id="glyph40792" />
<glyph
   unicode="¹"
   horiz-adv-x="367"
   d="M266,266l0,390l-102,0l-111,-48l15,-82l80,35l1,0l0,-295z"
   id="glyph40794" />
<glyph
   unicode="ª"
   horiz-adv-x="378"
   d="M341,266C338,285 336,314 336,344l0,107C336,525 298,591 189,591C129,591 82,574 56,559l20,-65C99,509 132,520 169,520C223,520 231,491 231,482l0,-7C110,475 32,436 32,359C32,304 73,261 139,261C182,260 215,276 239,299l2,0l7,-33M234,381C234,375 233,367 229,359C222,342 200,329 179,329C154,329 135,345 135,368C135,403 180,417 234,416z"
   id="glyph40796" />
<glyph
   unicode="º"
   horiz-adv-x="386"
   d="M194,591C94,591 24,524 24,423C24,324 98,261 191,261C279,261 362,315 362,429C362,522 297,591 195,591M193,517C234,517 255,469 255,427C255,373 233,335 194,335C155,335 132,376 132,424C132,465 148,517 192,517z"
   id="glyph40798" />
<glyph
   unicode="ø"
   horiz-adv-x="577"
   d="M288,500C137,500 33,397 33,243C33,158 65,92 118,49l-44,-65l50,-40l49,71C207,-3 247,-11 289,-11C416,-11 543,72 543,246C543,328 513,394 461,439l46,67l-53,36l-47,-68C372,491 332,500 289,500M200,166l-3,0C185,189 180,217 180,244C180,313 209,391 288,391C310,391 328,385 343,373M380,319l2,-1C394,294 398,265 398,242C398,156 357,98 289,98C270,98 252,103 238,116z"
   id="glyph40800" />
<glyph
   unicode="õ"
   horiz-adv-x="577"
   d="M287,-11C417,-11 544,71 544,249C544,397 444,500 295,500C137,500 33,399 33,241C33,83 143,-11 286,-11M288,98C224,98 189,161 189,244C189,317 217,391 289,391C358,391 386,317 386,245C386,157 349,98 289,98M218,556C220,586 229,601 242,601C254,601 263,596 281,586C302,574 322,563 351,563C402,563 431,599 429,685l-66,0C360,651 353,641 336,641C323,641 309,650 293,660C274,670 255,681 227,681C177,681 148,635 150,556z"
   id="glyph40802" />
<glyph
   unicode="p"
   horiz-adv-x="598"
   d="M61,-198l152,0l0,243l2,0C237,13 283,-11 342,-11C451,-11 564,73 564,251C564,407 468,500 361,500C290,500 234,472 198,421l-2,0l-7,68l-132,0C59,443 61,389 61,325M213,277C213,286 214,296 216,304C226,349 264,381 307,381C375,381 410,322 410,244C410,161 371,106 305,106C261,106 226,137 216,178C214,188 213,198 213,210z"
   id="glyph40804" />
<glyph
   unicode="¶"
   horiz-adv-x="542"
   d="M302,-47l0,631l72,0l0,-631l96,0l0,714C439,674 387,678 327,678C86,678 30,557 32,451C34,323 142,264 200,264l6,0l0,-311z"
   id="glyph40806" />
<glyph
   unicode="("
   horiz-adv-x="314"
   d="M174,691C121,613 61,481 60,286C60,93 121,-39 174,-117l106,0C224,-23 179,110 179,286C179,465 224,599 280,691z"
   id="glyph40808" />
<glyph
   unicode=")"
   horiz-adv-x="314"
   d="M141,-117C194,-38 254,93 255,287C255,482 194,614 141,691l-106,0C91,598 136,465 136,288C136,111 91,-24 35,-117z"
   id="glyph40810" />
<glyph
   unicode="%"
   horiz-adv-x="880"
   d="M209,661C98,661 27,573 27,457C27,335 105,261 204,261C298,261 384,332 384,467C384,579 321,661 210,661M207,578C254,578 272,527 272,461C272,387 251,343 208,343C164,343 140,392 141,460C141,526 161,578 206,578M677,391C567,391 496,304 496,188C496,65 574,-9 672,-9C766,-9 852,63 852,199C852,310 789,391 678,391M676,309C722,309 740,258 740,192C740,118 719,74 676,74C633,74 609,123 610,191C610,257 630,309 675,309M293,-11l373,671l-81,0l-374,-671z"
   id="glyph40812" />
<glyph
   unicode="."
   horiz-adv-x="260"
   d="M139,-11C193,-11 229,28 229,81C228,137 192,174 140,174C87,174 50,136 50,81C50,28 87,-11 138,-11z"
   id="glyph40814" />
<glyph
   unicode="·"
   horiz-adv-x="260"
   d="M130,177C184,177 220,216 220,269C219,324 183,362 131,362C78,362 41,324 41,269C41,216 78,177 129,177z"
   id="glyph40816" />
<glyph
   unicode="‰"
   horiz-adv-x="1285"
   d="M209,661C98,661 27,573 27,457C27,335 105,261 204,261C298,261 384,333 384,468C384,579 321,661 210,661M207,578C254,578 272,527 272,461C272,388 251,344 208,344C164,344 140,393 141,461C141,526 161,578 206,578M677,391C567,391 496,303 496,187C496,65 574,-9 672,-9C766,-9 852,63 852,198C852,309 789,391 678,391M676,308C722,308 740,257 740,191C740,118 719,74 676,74C632,74 609,123 610,191C610,256 630,308 675,308M1081,391C970,391 899,303 899,187C899,65 977,-9 1076,-9C1170,-9 1256,63 1256,198C1256,309 1193,391 1082,391M1079,308C1126,308 1144,257 1144,191C1144,118 1123,74 1080,74C1036,74 1012,123 1013,191C1013,256 1033,308 1078,308M293,-11l373,671l-81,0l-374,-671z"
   id="glyph40818" />
<glyph
   unicode="+"
   horiz-adv-x="596"
   d="M249,532l0,-218l-209,0l0,-93l209,0l0,-221l98,0l0,221l209,0l0,93l-209,0l0,218z"
   id="glyph40820" />
<glyph
   unicode="±"
   horiz-adv-x="596"
   d="M249,579l0,-173l-209,0l0,-93l209,0l0,-177l98,0l0,177l209,0l0,93l-209,0l0,173M40,93l0,-93l516,0l0,93z"
   id="glyph40822" />
<glyph
   unicode="q"
   horiz-adv-x="595"
   d="M383,-198l152,0l0,540C535,393 537,442 538,489l-146,0l-4,-57l-2,0C358,477 312,500 249,500C144,500 33,413 33,238C33,83 129,-11 235,-11C301,-11 350,15 381,62l2,0M383,211C383,201 382,188 379,178C369,138 334,109 291,109C227,109 187,162 187,244C187,323 223,381 292,381C339,381 372,348 380,308C382,301 383,292 383,284z"
   id="glyph40824" />
<glyph
   unicode="?"
   horiz-adv-x="445"
   d="M271,219l0,18C270,282 286,321 322,361C360,404 408,453 408,530C408,612 347,685 216,685C144,685 85,665 49,644l33,-108C109,554 148,565 182,565C231,564 254,540 254,506C254,472 228,439 196,401C151,348 135,296 137,245l2,-26M202,-11C256,-11 291,28 291,80C290,134 255,171 201,171C149,171 112,134 112,80C112,28 148,-11 201,-11z"
   id="glyph40826" />
<glyph
   unicode="¿"
   horiz-adv-x="445"
   d="M248,493C195,493 159,455 159,402C159,349 194,311 248,311C302,311 337,349 337,402C337,455 301,493 249,493M180,264l0,-18C181,201 165,162 129,122C91,79 43,30 43,-47C43,-129 104,-202 235,-202C307,-202 366,-182 402,-161l-33,109C342,-71 303,-82 269,-82C220,-81 197,-57 197,-23C197,11 223,44 255,82C300,135 316,187 314,238l-2,26z"
   id="glyph40828" />
<glyph
   unicode="&quot;"
   horiz-adv-x="397"
   d="M36,692l22,-271l90,0l22,271M228,692l22,-271l90,0l22,271z"
   id="glyph40830" />
<glyph
   unicode="„"
   horiz-adv-x="459"
   d="M107,-96C153,-20 196,77 227,175l-142,-9C71,78 46,-19 15,-104M303,-96C348,-20 392,77 423,175l-142,-9C267,78 241,-19 211,-104z"
   id="glyph40832" />
<glyph
   unicode="“"
   horiz-adv-x="454"
   d="M167,422C181,510 207,607 237,692l-92,-8C100,608 56,511 25,413M363,422C377,510 402,607 433,692l-92,-8C295,608 252,511 221,413z"
   id="glyph40834" />
<glyph
   unicode="”"
   horiz-adv-x="454"
   d="M94,683C80,595 55,499 24,413l92,9C162,497 205,595 236,692M290,683C276,595 250,499 220,413l92,9C357,497 401,595 432,692z"
   id="glyph40836" />
<glyph
   unicode="‘"
   horiz-adv-x="260"
   d="M169,422C183,510 209,607 239,692l-92,-8C101,608 58,511 27,413z"
   id="glyph40838" />
<glyph
   unicode="’"
   horiz-adv-x="260"
   d="M96,683C82,595 56,499 26,413l92,9C164,497 207,595 238,692z"
   id="glyph40840" />
<glyph
   unicode="‚"
   horiz-adv-x="260"
   d="M108,-96C154,-20 197,77 228,175l-142,-9C72,78 46,-19 16,-104z"
   id="glyph40842" />
<glyph
   unicode="'"
   horiz-adv-x="205"
   d="M36,692l22,-271l90,0l22,271z"
   id="glyph40844" />
<glyph
   unicode="r"
   horiz-adv-x="380"
   d="M61,0l152,0l0,247C213,260 214,271 216,281C226,329 264,358 320,358C337,358 349,356 362,354l0,143C351,499 344,500 330,500C282,500 223,470 198,398l-4,0l-6,91l-130,0C61,447 62,400 62,328z"
   id="glyph40846" />
<glyph
   unicode="®"
   horiz-adv-x="510"
   d="M256,685C132,685 31,584 31,460C31,334 132,234 256,234C381,234 480,334 480,460C480,584 381,685 257,685M256,640C351,640 428,559 428,459C428,358 351,278 256,279C161,279 85,358 85,459C85,559 161,640 255,640M217,432l24,0C268,432 284,421 288,394C293,360 297,338 303,329l55,0C354,337 349,352 344,391C340,428 326,448 304,452l0,2C331,461 352,482 352,512C352,538 344,555 330,566C313,579 287,586 244,586C206,586 184,582 164,579l0,-250l53,0M217,545C224,546 233,546 246,546C282,546 297,530 297,509C297,483 273,473 242,473l-25,0z"
   id="glyph40848" />
<glyph
   unicode="˚"
   horiz-adv-x="400"
   d="M201,735C127,735 86,691 86,635C86,580 130,538 201,538C270,538 314,580 314,636C314,692 275,735 202,735M201,685C230,685 246,661 246,636C246,610 230,588 200,588C172,588 156,612 156,635C156,661 171,685 200,685z"
   id="glyph40850" />
<glyph
   unicode="s"
   horiz-adv-x="434"
   d="M33,24C70,4 127,-11 191,-11C331,-11 402,56 402,148C401,219 363,267 270,298C210,319 191,331 191,355C191,379 212,394 249,394C290,394 333,378 355,367l26,104C351,486 301,500 244,500C123,500 45,431 45,339C44,282 83,226 185,193C241,174 256,162 256,136C256,111 237,96 191,96C146,96 88,115 60,132z"
   id="glyph40852" />
<glyph
   unicode="š"
   horiz-adv-x="434"
   d="M33,24C70,4 127,-11 191,-11C331,-11 402,56 402,148C401,219 363,267 270,298C210,319 191,331 191,355C191,379 212,394 249,394C290,394 333,378 355,367l26,104C351,486 301,500 244,500C123,500 45,431 45,339C44,282 83,226 185,193C241,174 256,162 256,136C256,111 237,96 191,96C146,96 88,115 60,132M271,548l99,152l-98,0l-51,-88l-2,0l-51,88l-98,0l99,-152z"
   id="glyph40854" />
<glyph
   unicode="§"
   horiz-adv-x="561"
   d="M163,343C163,366 178,385 199,396C229,381 286,363 328,347C377,328 397,303 397,275C397,254 385,233 367,222C345,234 296,249 250,265C190,286 163,311 163,342M464,654C417,675 364,684 306,684C184,684 88,630 88,529C88,491 107,455 128,438C72,410 45,359 45,316C45,216 138,176 244,143C320,119 350,101 350,68C350,34 313,17 260,17C199,17 138,41 108,59l-29,-93C133,-68 206,-78 266,-78C359,-78 488,-40 488,82C488,127 463,160 444,175C486,203 516,243 516,297C516,400 434,439 326,472C254,494 219,512 219,542C219,571 250,590 308,590C368,590 410,576 440,562z"
   id="glyph40856" />
<glyph
   unicode=";"
   horiz-adv-x="260"
   d="M103,-110C150,-32 196,73 228,175l-153,-10C61,74 34,-31 2,-119M145,312C199,312 234,351 234,403C233,458 198,495 145,495C93,495 56,457 56,403C56,351 92,312 144,312z"
   id="glyph40858" />
<glyph
   unicode="7"
   horiz-adv-x="555"
   d="M49,650l0,-125l298,0l0,-2l-268,-523l161,0l268,555l0,95z"
   id="glyph40860" />
<glyph
   unicode="6"
   horiz-adv-x="555"
   d="M457,659C443,660 424,661 396,658C295,653 210,622 146,563C75,497 30,395 30,273C30,118 115,-11 289,-11C429,-11 528,95 528,224C528,359 436,436 327,436C267,436 221,417 189,385l-3,0C203,460 263,530 398,540C422,542 440,543 457,542M286,101C217,101 184,163 181,232C181,250 183,262 188,271C202,303 236,328 277,328C342,328 374,276 374,216C374,150 340,101 287,101z"
   id="glyph40862" />
<glyph
   unicode="/"
   horiz-adv-x="331"
   d="M117,-40l214,725l-101,0l-214,-725z"
   id="glyph40864" />
<glyph
   unicode=" "
   horiz-adv-x="202"
   id="glyph40866" />
<glyph
   unicode="£"
   horiz-adv-x="555"
   d="M507,0l0,124l-267,0l0,2C264,147 280,172 289,197C296,220 298,244 298,268l124,0l0,104l-138,0C279,397 275,420 275,446C275,495 297,540 368,540C405,540 433,533 453,522l24,115C455,649 414,661 360,661C225,661 134,578 134,453C134,425 137,397 142,372l-80,0l0,-104l98,0C163,255 163,242 163,228C163,160 105,103 51,81l0,-81z"
   id="glyph40868" />
<glyph
   unicode="t"
   horiz-adv-x="367"
   d="M82,581l0,-92l-65,0l0,-112l65,0l0,-201C82,107 96,60 124,31C149,6 190,-11 239,-11C281,-11 318,-5 337,2l-1,115C322,114 312,113 291,113C246,113 231,140 231,199l0,178l109,0l0,112l-109,0l0,133z"
   id="glyph40870" />
<glyph
   unicode="þ"
   horiz-adv-x="598"
   d="M61,676l0,-874l152,0l0,244l2,0C240,13 284,-11 344,-11C445,-11 564,68 564,249C564,411 465,502 361,500C293,500 244,472 215,429l-2,0l0,247M213,284C213,297 218,314 223,325C239,360 272,381 310,381C373,381 410,322 410,247C410,160 369,106 306,106C272,106 242,125 227,153C218,165 213,186 213,200z"
   id="glyph40872" />
<glyph
   unicode="3"
   horiz-adv-x="555"
   d="M38,34C76,11 147,-11 231,-11C396,-11 497,73 497,187C497,273 434,332 356,346l0,2C436,375 475,430 475,499C475,588 398,661 260,661C175,661 98,637 59,612l31,-110C116,518 172,541 225,541C290,541 321,512 321,473C321,418 257,398 206,398l-59,0l0,-109l62,0C275,289 339,260 339,195C339,147 299,109 220,109C158,109 96,134 69,149z"
   id="glyph40874" />
<glyph
   unicode="¾"
   horiz-adv-x="831"
   d="M64,556C84,567 120,581 155,581C192,581 208,566 208,545C208,514 164,504 131,504l-28,0l0,-68l30,0C177,436 219,420 219,386C219,360 189,341 148,341C112,341 70,355 50,367l-23,-78C56,273 108,261 162,261C272,261 342,310 342,380C342,431 300,466 245,471l0,2C293,488 327,519 327,562C327,617 279,661 183,661C125,661 72,646 43,629M288,-11l368,672l-83,0l-367,-672M752,0l0,90l53,0l0,74l-53,0l0,230l-133,0l-171,-241l0,-63l196,0l0,-90M644,164l-88,0l-2,1l56,82C622,266 633,288 646,312l2,0C647,288 644,264 644,238z"
   id="glyph40876" />
<glyph
   unicode="³"
   horiz-adv-x="373"
   d="M66,556C86,567 122,581 157,581C194,581 210,566 210,545C210,514 166,504 133,504l-28,0l0,-68l30,0C179,436 221,420 221,386C221,360 191,341 150,341C114,341 72,356 52,367l-23,-78C58,273 110,261 164,261C274,261 344,310 344,380C344,431 302,466 247,471l0,2C295,488 329,519 329,562C329,617 281,661 185,661C127,661 74,646 45,629z"
   id="glyph40878" />
<glyph
   unicode="˜"
   horiz-adv-x="300"
   d="M79,556C81,586 90,601 103,601C115,601 124,596 142,586C163,574 183,563 212,563C263,563 292,599 290,685l-66,0C221,651 214,641 197,641C184,641 170,650 154,660C135,670 116,681 88,681C38,681 9,635 11,556z"
   id="glyph40880" />
<glyph
   unicode="™"
   horiz-adv-x="867"
   d="M16,674l0,-80l110,0l0,-317l97,0l0,317l112,0l0,80M823,277l-26,397l-125,0l-48,-154C613,486 603,445 592,405l-2,0C580,444 572,484 562,519l-44,155l-133,0l-27,-397l88,0l10,191C458,508 458,554 459,601l2,0C473,555 483,508 493,469l51,-185l75,0l58,182C689,506 703,556 714,601l2,0C718,549 717,506 719,466l9,-189z"
   id="glyph40882" />
<glyph
   unicode="2"
   horiz-adv-x="555"
   d="M504,0l0,125l-246,0l0,2l60,50C413,261 491,348 491,457C491,575 411,661 263,661C176,661 99,631 51,594l43,-108C128,511 177,539 233,539C308,539 339,497 339,444C338,368 269,295 126,167l-83,-75l0,-92z"
   id="glyph40884" />
<glyph
   unicode="²"
   horiz-adv-x="376"
   d="M34,266l308,0l0,87l-146,0l0,2l24,20C280,423 335,469 335,540C335,608 282,661 183,661C122,661 70,642 37,618l30,-76C89,557 120,570 153,570C191,570 212,550 212,522C212,479 171,445 96,378l-62,-55z"
   id="glyph40886" />
<glyph
   unicode="u"
   horiz-adv-x="583"
   d="M522,489l-152,0l0,-291C370,185 368,174 364,165C355,141 330,112 288,112C234,112 211,155 211,226l0,263l-152,0l0,-287C59,51 131,-11 231,-11C319,-11 365,39 384,69l3,0l7,-69l132,0C524,41 522,93 522,157z"
   id="glyph40888" />
<glyph
   unicode="ú"
   horiz-adv-x="583"
   d="M522,489l-152,0l0,-291C370,185 368,174 364,165C355,141 330,112 288,112C234,112 211,155 211,226l0,263l-152,0l0,-287C59,51 131,-11 231,-11C319,-11 365,39 384,69l3,0l7,-69l132,0C524,41 522,93 522,157M316,700l-86,-152l104,0l122,152z"
   id="glyph40890" />
<glyph
   unicode="û"
   horiz-adv-x="583"
   d="M522,489l-152,0l0,-291C370,185 368,174 364,165C355,141 330,112 288,112C234,112 211,155 211,226l0,263l-152,0l0,-287C59,51 131,-11 231,-11C319,-11 365,39 384,69l3,0l7,-69l132,0C524,41 522,93 522,157M244,700l-99,-152l96,0l50,86l2,0l50,-86l96,0l-99,152z"
   id="glyph40892" />
<glyph
   unicode="ü"
   horiz-adv-x="583"
   d="M522,489l-152,0l0,-291C370,185 368,174 364,165C355,141 330,112 288,112C234,112 211,155 211,226l0,263l-152,0l0,-287C59,51 131,-11 231,-11C319,-11 365,39 384,69l3,0l7,-69l132,0C524,41 522,93 522,157M194,547C232,547 260,578 260,615C260,654 232,683 194,683C155,683 125,654 125,615C125,578 155,547 193,547M397,547C436,547 464,578 464,615C464,654 436,683 397,683C358,683 329,654 329,615C329,578 357,547 396,547z"
   id="glyph40894" />
<glyph
   unicode="ù"
   horiz-adv-x="583"
   d="M522,489l-152,0l0,-291C370,185 368,174 364,165C355,141 330,112 288,112C234,112 211,155 211,226l0,263l-152,0l0,-287C59,51 131,-11 231,-11C319,-11 365,39 384,69l3,0l7,-69l132,0C524,41 522,93 522,157M128,700l122,-152l104,0l-86,152z"
   id="glyph40896" />
<glyph
   unicode="_"
   horiz-adv-x="500"
   d="M0,-75l0,-50l500,0l0,50z"
   id="glyph40898" />
<glyph
   unicode="v"
   horiz-adv-x="530"
   d="M9,489l178,-489l152,0l182,489l-160,0l-63,-227C287,220 279,183 271,143l-3,0C260,182 252,221 240,262l-66,227z"
   id="glyph40900" />
<glyph
   unicode="w"
   horiz-adv-x="759"
   d="M11,489l143,-489l143,0l49,172C358,217 368,263 377,324l2,0C389,263 398,219 411,171l46,-171l142,0l150,489l-149,0l-41,-194C547,239 537,183 530,128l-2,0C519,184 506,238 492,294l-49,195l-120,0l-52,-202C260,239 245,183 236,128l-3,0C225,184 215,238 206,288l-40,201z"
   id="glyph40902" />
<glyph
   unicode="x"
   horiz-adv-x="519"
   d="M7,489l162,-240l-166,-249l167,0l46,88C228,112 241,136 253,162l3,0C267,137 280,112 294,88l49,-88l172,0l-163,256l161,233l-165,0l-43,-79C292,385 280,361 267,334l-2,0C252,358 239,382 225,407l-48,82z"
   id="glyph40904" />
<glyph
   unicode="y"
   horiz-adv-x="523"
   d="M6,489l180,-447C191,30 192,22 192,17C192,10 189,3 184,-5C170,-29 144,-54 121,-66C98,-79 74,-88 55,-92l32,-128C126,-216 182,-199 234,-153C289,-104 336,-27 406,167l114,322l-163,0l-60,-240C290,221 282,184 275,158l-3,0C266,184 256,220 248,249l-73,240z"
   id="glyph40906" />
<glyph
   unicode="ý"
   horiz-adv-x="523"
   d="M6,489l180,-447C191,30 192,22 192,17C192,10 189,3 184,-5C170,-29 144,-54 121,-66C98,-79 74,-88 55,-92l32,-128C126,-216 182,-199 234,-153C289,-104 336,-27 406,167l114,322l-163,0l-60,-240C290,221 282,184 275,158l-3,0C266,184 256,220 248,249l-73,240M298,700l-86,-152l104,0l122,152z"
   id="glyph40908" />
<glyph
   unicode="ÿ"
   horiz-adv-x="523"
   d="M6,489l180,-447C191,30 192,22 192,17C192,10 189,3 184,-5C170,-29 144,-54 121,-66C98,-79 74,-88 55,-92l32,-128C126,-216 182,-199 234,-153C289,-104 336,-27 406,167l114,322l-163,0l-60,-240C290,221 282,184 275,158l-3,0C266,184 256,220 248,249l-73,240M173,547C211,547 239,578 239,615C239,654 211,683 173,683C134,683 104,654 104,615C104,578 134,547 172,547M376,547C415,547 443,578 443,615C443,654 415,683 376,683C337,683 308,654 308,615C308,578 336,547 375,547z"
   id="glyph40910" />
<glyph
   unicode="¥"
   horiz-adv-x="555"
   d="M344,0l0,160l157,0l0,71l-157,0l0,64l157,0l0,71l-119,0l171,284l-160,0l-71,-159C305,452 292,414 279,381l-2,0C264,416 253,450 235,490l-70,160l-163,0l163,-284l-120,0l0,-71l156,0l0,-64l-156,0l0,-71l156,0l0,-160z"
   id="glyph40912" />
<glyph
   unicode="z"
   horiz-adv-x="469"
   d="M22,0l425,0l0,121l-235,0l0,2C240,150 265,181 292,212l147,185l0,92l-400,0l0,-121l215,0l0,-2C226,337 204,312 176,280l-154,-192z"
   id="glyph40914" />
<glyph
   unicode="ž"
   horiz-adv-x="469"
   d="M22,0l425,0l0,121l-235,0l0,2C240,150 265,181 292,212l147,185l0,92l-400,0l0,-121l215,0l0,-2C226,337 204,312 176,280l-154,-192M292,548l99,152l-98,0l-51,-88l-2,0l-51,88l-98,0l99,-152z"
   id="glyph40916" />
<glyph
   unicode="0"
   horiz-adv-x="555"
   d="M277,-11C441,-11 522,128 522,328C522,506 453,661 280,661C112,661 33,513 33,324C34,140 108,-11 276,-11M277,104C219,104 183,176 184,326C184,473 220,546 277,546C338,546 369,470 369,326C369,178 337,104 278,104z"
   id="glyph40918" />
</font>

	<font
   horiz-adv-x="1000"
   id="font40920">
<font-face
   font-family="DejaVu Serif"
   units-per-em="1000"
   underline-position="-100"
   underline-thickness="50"
   id="font-face40922" />
<missing-glyph
   horiz-adv-x="212"
   id="missing-glyph40924" />
<glyph
   unicode="A"
   horiz-adv-x="612"
   d="M424,212l72,-212l93,0l-230,674l-105,0l-229,-674l90,0l70,212M203,280l66,195C282,516 293,558 302,597l3,0C315,558 325,518 339,474l67,-194z"
   id="glyph40926" />
<glyph
   unicode="Æ"
   horiz-adv-x="788"
   d="M89,0l108,237l206,0l30,-237l322,0l0,73l-246,0l-30,241l240,0l0,72l-251,0l-26,215l286,0l0,73l-421,0l-308,-674M226,308l87,197C328,540 344,579 356,611l4,0C362,577 368,533 372,502l22,-194z"
   id="glyph40928" />
<glyph
   unicode="Á"
   horiz-adv-x="612"
   d="M424,212l72,-212l93,0l-230,674l-105,0l-229,-674l90,0l70,212M203,280l66,195C282,516 293,558 302,597l3,0C315,558 325,518 339,474l67,-194M354,828l-94,-118l71,0l128,118z"
   id="glyph40930" />
<glyph
   unicode="Â"
   horiz-adv-x="612"
   d="M424,212l72,-212l93,0l-230,674l-105,0l-229,-674l90,0l70,212M203,280l66,195C282,516 293,558 302,597l3,0C315,558 325,518 339,474l67,-194M279,828l-102,-118l70,0l63,74l2,0l63,-74l72,0l-104,118z"
   id="glyph40932" />
<glyph
   unicode="Ä"
   horiz-adv-x="612"
   d="M424,212l73,-212l93,0l-230,674l-106,0l-229,-674l90,0l70,212M203,280l66,195C282,516 293,558 303,597l2,0C315,558 325,518 340,474l67,-194M218,721C247,721 266,744 266,771C266,800 246,822 218,822C190,822 169,799 169,771C169,744 189,721 217,721M401,721C431,721 450,744 450,771C450,800 430,822 402,822C374,822 353,799 353,771C353,744 372,721 400,721z"
   id="glyph40934" />
<glyph
   unicode="À"
   horiz-adv-x="612"
   d="M424,212l72,-212l93,0l-230,674l-105,0l-229,-674l90,0l70,212M203,280l66,195C282,516 293,558 302,597l3,0C315,558 325,518 339,474l67,-194M156,828l129,-117l70,0l-93,117z"
   id="glyph40936" />
<glyph
   unicode="Å"
   horiz-adv-x="612"
   d="M425,212l72,-212l93,0l-226,662C396,673 418,702 418,737C418,791 379,831 311,831C244,831 203,788 203,737C203,704 222,675 252,664l-225,-664l90,0l69,212M310,794C344,794 364,770 364,739C364,709 344,685 310,685C277,685 257,711 257,738C257,768 275,794 309,794M203,280l71,209C285,524 297,566 303,596l2,0C315,559 327,513 339,478l68,-198z"
   id="glyph40938" />
<glyph
   unicode="Ã"
   horiz-adv-x="612"
   d="M424,212l72,-212l93,0l-230,674l-105,0l-228,-674l90,0l69,212M203,280l66,195C282,516 293,558 302,597l3,0C315,558 325,518 339,474l67,-194M228,715C231,742 238,759 254,759C270,759 284,750 303,740C324,729 342,721 364,721C410,721 432,755 431,816l-45,0C384,782 374,775 357,775C342,775 326,783 310,793C289,805 271,814 248,814C207,814 181,774 183,715z"
   id="glyph40940" />
<glyph
   unicode="B"
   horiz-adv-x="542"
   d="M76,2C105,-2 151,-6 211,-6C321,-6 397,14 443,57C478,90 501,134 501,192C501,292 426,345 362,360l0,3C432,388 476,445 476,511C476,564 454,604 419,630C378,664 322,679 235,679C175,679 114,673 76,664M163,606C177,609 200,612 240,612C328,612 387,580 387,502C387,437 333,388 242,388l-79,0M163,323l72,0C330,323 409,284 409,193C409,95 326,62 236,62C205,62 181,63 163,66z"
   id="glyph40942" />
<glyph
   unicode="C"
   horiz-adv-x="580"
   d="M529,91C494,74 440,63 386,63C223,63 128,168 128,334C128,511 233,612 391,612C447,612 494,600 526,584l22,71C525,667 471,685 388,685C179,685 36,543 36,331C36,109 178,-11 368,-11C450,-11 515,5 546,21z"
   id="glyph40944" />
<glyph
   unicode="Ç"
   horiz-adv-x="585"
   d="M529,91C494,74 439,63 386,63C223,63 128,168 128,334C128,511 233,612 391,612C447,612 494,600 527,584l21,71C525,667 471,685 388,685C179,685 36,543 36,331C36,129 153,13 314,-7l-41,-74C319,-86 350,-98 350,-123C350,-145 330,-154 308,-154C289,-154 270,-149 254,-140l-15,-43C255,-192 282,-200 308,-200C363,-200 412,-178 412,-121C412,-83 380,-55 342,-50l25,39C453,-10 516,6 547,21z"
   id="glyph40946" />
<glyph
   unicode="D"
   horiz-adv-x="666"
   d="M75,2C120,-4 171,-6 234,-6C365,-6 469,28 533,91C595,153 630,243 630,353C630,462 595,541 534,596C475,651 386,679 261,679C192,679 129,673 75,665M163,601C186,606 220,610 265,610C449,610 539,511 538,350C538,168 437,63 251,64C217,64 185,64 163,68z"
   id="glyph40948" />
<glyph
   unicode="E"
   horiz-adv-x="492"
   d="M424,388l-261,0l0,213l277,0l0,73l-365,0l0,-674l380,0l0,73l-292,0l0,243l261,0z"
   id="glyph40950" />
<glyph
   unicode="É"
   horiz-adv-x="492"
   d="M424,388l-261,0l0,213l277,0l0,73l-365,0l0,-674l380,0l0,73l-292,0l0,243l261,0M302,828l-94,-118l71,0l129,118z"
   id="glyph40952" />
<glyph
   unicode="Ê"
   horiz-adv-x="492"
   d="M424,388l-261,0l0,213l277,0l0,73l-365,0l0,-674l380,0l0,73l-292,0l0,243l261,0M225,828l-102,-118l70,0l63,74l2,0l63,-74l72,0l-104,118z"
   id="glyph40954" />
<glyph
   unicode="Ë"
   horiz-adv-x="492"
   d="M424,388l-261,0l0,213l277,0l0,73l-365,0l0,-674l380,0l0,73l-292,0l0,243l261,0M169,721C198,721 217,744 217,772C217,800 197,822 169,822C141,822 120,799 120,772C120,744 140,721 168,721M352,721C382,721 401,744 401,772C401,800 381,822 353,822C325,822 304,799 304,772C304,744 323,721 351,721z"
   id="glyph40956" />
<glyph
   unicode="È"
   horiz-adv-x="492"
   d="M424,388l-261,0l0,213l277,0l0,73l-365,0l0,-674l380,0l0,73l-292,0l0,243l261,0M122,828l129,-117l70,0l-93,117z"
   id="glyph40958" />
<glyph
   unicode="Ð"
   horiz-adv-x="671"
   d="M-2,307l82,0l0,-307C125,-5 176,-7 239,-7C369,-7 473,27 537,90C599,152 634,242 634,353C634,464 599,544 538,599C480,654 390,682 266,682C197,682 134,676 80,668l0,-291l-82,0M348,377l-180,0l0,227C191,609 225,613 270,613C453,613 543,514 542,352C542,166 442,63 255,63C222,63 190,63 168,67l0,240l180,0z"
   id="glyph40960" />
<glyph
   unicode="F"
   horiz-adv-x="487"
   d="M75,0l88,0l0,305l254,0l0,72l-254,0l0,224l275,0l0,73l-363,0z"
   id="glyph40962" />
<glyph
   unicode="G"
   horiz-adv-x="646"
   d="M590,354l-222,0l0,-70l136,0l0,-201C484,73 445,65 388,65C230,65 128,166 128,337C128,506 235,608 399,608C467,608 512,596 548,579l22,71C541,664 479,681 401,681C175,681 36,534 36,333C36,228 72,138 130,82C196,19 280,-7 382,-7C473,-7 551,15 590,30z"
   id="glyph40964" />
<glyph
   unicode="H"
   horiz-adv-x="652"
   d="M75,674l0,-674l88,0l0,316l326,0l0,-316l88,0l0,674l-88,0l0,-282l-326,0l0,282z"
   id="glyph40966" />
<glyph
   unicode="I"
   horiz-adv-x="239"
   d="M75,674l0,-674l88,0l0,674z"
   id="glyph40968" />
<glyph
   unicode="Í"
   horiz-adv-x="239"
   d="M75,674l0,-674l88,0l0,674M162,828l-94,-118l71,0l128,118z"
   id="glyph40970" />
<glyph
   unicode="Î"
   horiz-adv-x="239"
   d="M75,674l0,-674l88,0l0,674M86,828l-102,-118l70,0l63,74l2,0l63,-74l72,0l-104,118z"
   id="glyph40972" />
<glyph
   unicode="Ï"
   horiz-adv-x="239"
   d="M75,674l0,-674l88,0l0,674M28,721C57,721 75,744 75,771C75,800 56,822 28,822C0,822 -21,799 -21,771C-21,744 -1,721 27,721M210,721C240,721 259,744 259,771C259,800 239,822 211,822C183,822 162,799 162,771C162,744 181,721 209,721z"
   id="glyph40974" />
<glyph
   unicode="Ì"
   horiz-adv-x="239"
   d="M75,674l0,-674l88,0l0,674M-28,828l128,-117l71,0l-94,117z"
   id="glyph40976" />
<glyph
   unicode="J"
   horiz-adv-x="370"
   d="M213,230C213,98 168,63 90,63C60,63 34,69 16,76l-12,-71C25,-4 64,-11 97,-11C213,-11 301,44 301,223l0,451l-88,0z"
   id="glyph40978" />
<glyph
   unicode="K"
   horiz-adv-x="542"
   d="M76,0l87,0l0,257l65,74l221,-331l103,0l-263,388l244,286l-108,0l-206,-253C202,399 184,375 166,349l-3,0l0,325l-87,0z"
   id="glyph40980" />
<glyph
   unicode="L"
   horiz-adv-x="472"
   d="M75,0l376,0l0,73l-288,0l0,601l-88,0z"
   id="glyph40982" />
<glyph
   unicode="Ł"
   horiz-adv-x="476"
   d="M455,0l0,73l-288,0l0,255l134,97l0,69l-134,-98l0,278l-88,0l0,-337l-84,-62l0,-67l84,61l0,-269z"
   id="glyph40984" />
<glyph
   unicode="M"
   horiz-adv-x="804"
   d="M660,0l86,0l-42,674l-111,0l-120,-326C443,263 419,189 401,121l-2,0C381,191 359,265 331,348l-115,326l-111,0l-47,-674l83,0l18,289C165,391 170,503 172,587l2,0C193,507 219,421 251,325l110,-321l66,0l119,327C580,424 607,509 631,587l2,0C633,504 639,390 644,296z"
   id="glyph40986" />
<glyph
   unicode="N"
   horiz-adv-x="658"
   d="M158,0l0,288C158,400 157,481 152,566l3,1C188,494 233,417 280,342l214,-342l88,0l0,674l-82,0l0,-283C500,287 502,205 510,115l-3,-1C476,184 436,254 387,333l-215,341l-96,0l0,-674z"
   id="glyph40988" />
<glyph
   unicode="Ñ"
   horiz-adv-x="658"
   d="M158,0l0,288C158,400 157,481 152,566l3,1C188,494 234,417 280,342l214,-342l88,0l0,674l-82,0l0,-283C500,287 502,205 510,115l-3,-1C476,184 436,254 387,333l-215,341l-96,0l0,-674M260,715C263,742 270,759 286,759C302,759 316,750 335,740C356,729 374,721 396,721C442,721 464,755 463,816l-45,0C416,782 406,775 389,775C374,775 358,783 342,793C321,805 303,814 280,814C239,814 213,774 215,715z"
   id="glyph40990" />
<glyph
   unicode="O"
   horiz-adv-x="689"
   d="M340,-11C511,-11 652,113 652,344C652,544 533,685 348,685C168,685 36,545 36,331C36,127 160,-11 339,-11M342,60C205,60 127,191 127,333C127,479 199,614 344,614C489,614 559,474 559,340C559,187 481,60 343,60z"
   id="glyph40992" />
<glyph
   unicode="Œ"
   horiz-adv-x="894"
   d="M857,73l-292,0l0,242l261,0l0,72l-261,0l0,214l277,0l0,73l-322,0C502,674 481,677 456,680C431,682 403,685 368,685C174,685 36,553 36,332C36,139 153,-11 363,-11C394,-11 421,-8 446,-6C470,-3 492,0 512,0l345,0M477,74C455,65 416,60 379,60C220,60 128,172 128,336C128,501 220,614 370,614C419,614 451,608 477,599z"
   id="glyph40994" />
<glyph
   unicode="Ó"
   horiz-adv-x="689"
   d="M340,-11C511,-11 652,113 652,344C652,544 533,685 348,685C168,685 36,545 36,331C36,127 160,-11 339,-11M342,60C205,60 127,191 127,333C127,479 199,614 344,614C489,614 559,474 559,340C559,187 481,60 343,60M396,828l-94,-118l71,0l129,118z"
   id="glyph40996" />
<glyph
   unicode="Ô"
   horiz-adv-x="689"
   d="M340,-11C511,-11 652,113 652,344C652,544 533,685 348,685C168,685 36,545 36,331C36,127 160,-11 339,-11M342,60C205,60 127,191 127,333C127,479 199,614 344,614C489,614 559,474 559,340C559,187 481,60 343,60M311,828l-102,-118l71,0l62,74l2,0l63,-74l72,0l-104,118z"
   id="glyph40998" />
<glyph
   unicode="Ö"
   horiz-adv-x="689"
   d="M341,-11C512,-11 652,113 652,344C652,544 533,685 349,685C168,685 36,545 36,331C36,127 160,-11 340,-11M342,60C205,60 127,191 127,333C127,479 199,614 344,614C489,614 559,474 559,340C559,187 482,60 343,60M253,721C282,721 301,744 301,771C301,800 281,822 253,822C225,822 204,799 204,771C204,744 224,721 252,721M436,721C466,721 485,744 485,771C485,800 465,822 437,822C409,822 388,799 388,771C388,744 407,721 435,721z"
   id="glyph41000" />
<glyph
   unicode="Ò"
   horiz-adv-x="689"
   d="M340,-11C511,-11 652,113 652,344C652,544 533,685 348,685C168,685 36,545 36,331C36,127 160,-11 339,-11M342,60C205,60 127,191 127,333C127,479 199,614 344,614C489,614 559,474 559,340C559,187 481,60 343,60M193,828l129,-117l70,0l-93,117z"
   id="glyph41002" />
<glyph
   unicode="Ø"
   horiz-adv-x="689"
   d="M112,-43l63,86C223,8 282,-11 345,-11C507,-11 652,108 652,343C652,442 621,530 565,591l62,86l-53,36l-59,-81C467,667 409,685 347,685C170,685 36,546 36,333C36,232 69,144 125,83l-62,-87M176,158l-2,-1C144,208 125,263 125,337C125,479 199,615 345,615C396,615 438,597 472,568M513,515l3,0C551,457 563,397 563,340C563,188 484,59 344,59C289,59 251,76 218,107z"
   id="glyph41004" />
<glyph
   unicode="Õ"
   horiz-adv-x="689"
   d="M340,-11C511,-11 652,113 652,344C652,544 533,685 348,685C168,685 36,545 36,331C36,127 160,-11 339,-11M342,60C205,60 127,191 127,333C127,479 199,614 344,614C489,614 559,474 559,340C559,187 481,60 343,60M265,715C268,742 275,759 291,759C307,759 321,750 340,740C362,729 380,721 401,721C448,721 470,755 469,816l-45,0C421,782 412,775 395,775C380,775 364,783 347,793C326,805 308,814 286,814C244,814 218,774 220,715z"
   id="glyph41006" />
<glyph
   unicode="P"
   horiz-adv-x="532"
   d="M76,0l87,0l0,270C183,265 207,264 233,264C318,264 393,289 439,338C474,373 492,421 492,482C492,542 469,591 432,623C392,659 329,679 243,679C173,679 118,673 76,665M163,603C178,606 207,610 245,610C341,610 404,567 404,477C404,386 341,334 235,334C207,334 182,336 163,341z"
   id="glyph41008" />
<glyph
   unicode="Q"
   horiz-adv-x="689"
   d="M657,-26C600,-16 527,0 460,17l0,4C572,61 652,171 652,344C652,543 533,685 349,685C167,685 36,546 36,330C36,113 172,-5 333,-11C346,-11 359,-16 374,-21C452,-48 541,-75 632,-99M343,60C206,60 128,189 128,332C128,478 200,614 347,614C490,614 560,475 560,340C560,187 482,60 344,60z"
   id="glyph41010" />
<glyph
   unicode="R"
   horiz-adv-x="538"
   d="M76,0l87,0l0,292l82,0C324,289 361,254 381,161C399,77 414,19 425,0l90,0C502,26 486,91 464,185C447,255 416,303 365,321l0,3C435,348 492,407 492,495C492,548 472,594 439,623C397,661 336,679 243,679C184,679 120,673 76,664M163,603C178,607 207,611 249,611C341,611 404,573 404,486C404,409 345,358 252,358l-89,0z"
   id="glyph41012" />
<glyph
   unicode="S"
   horiz-adv-x="493"
   d="M42,33C78,9 149,-11 214,-11C373,-11 449,80 449,184C449,283 392,337 278,382C185,418 144,449 144,512C144,558 179,613 271,613C332,613 377,594 398,581l24,71C393,669 342,685 274,685C143,685 56,607 56,502C56,408 124,350 234,310C325,276 361,239 361,177C361,108 309,62 220,62C160,62 104,81 65,106z"
   id="glyph41014" />
<glyph
   unicode="Š"
   horiz-adv-x="493"
   d="M42,33C78,9 149,-11 214,-11C373,-11 449,80 449,184C449,283 392,337 278,382C185,418 144,449 144,512C144,558 179,613 271,613C332,613 377,594 398,581l24,71C393,669 342,685 274,685C143,685 56,607 56,502C56,408 124,350 234,310C325,276 361,239 361,177C361,108 309,62 220,62C160,62 104,81 65,106M291,710l101,118l-69,0l-63,-74l-2,0l-63,74l-72,0l103,-118z"
   id="glyph41016" />
<glyph
   unicode="T"
   horiz-adv-x="497"
   d="M204,0l88,0l0,600l206,0l0,74l-499,0l0,-74l205,0z"
   id="glyph41018" />
<glyph
   unicode="Þ"
   horiz-adv-x="531"
   d="M76,0l86,0l0,156C183,153 210,151 238,151C384,151 491,222 491,365C491,416 471,463 436,495C395,532 337,550 258,550C222,550 189,548 162,543l0,131l-86,0M162,473C178,477 210,481 250,481C341,481 404,442 404,355C404,273 345,221 237,221C211,221 185,222 162,227z"
   id="glyph41020" />
<glyph
   unicode="U"
   horiz-adv-x="647"
   d="M75,674l0,-397C75,67 179,-11 317,-11C463,-11 572,73 572,280l0,394l-88,0l0,-400C484,126 419,60 320,60C230,60 163,124 163,274l0,400z"
   id="glyph41022" />
<glyph
   unicode="Ú"
   horiz-adv-x="647"
   d="M75,674l0,-397C75,67 179,-11 317,-11C463,-11 572,73 572,280l0,394l-88,0l0,-400C484,126 419,60 320,60C230,60 163,124 163,274l0,400M371,828l-93,-118l70,0l129,118z"
   id="glyph41024" />
<glyph
   unicode="Û"
   horiz-adv-x="647"
   d="M75,674l0,-397C75,67 179,-11 317,-11C463,-11 572,73 572,280l0,394l-88,0l0,-400C484,126 419,60 320,60C230,60 163,124 163,274l0,400M297,828l-101,-118l70,0l62,74l2,0l63,-74l72,0l-104,118z"
   id="glyph41026" />
<glyph
   unicode="Ü"
   horiz-adv-x="647"
   d="M75,674l0,-397C75,67 179,-11 317,-11C463,-11 572,73 572,280l0,394l-88,0l0,-400C484,126 419,60 321,60C230,60 163,124 163,274l0,400M235,721C264,721 283,744 283,771C283,800 263,822 235,822C207,822 186,799 186,771C186,744 206,721 234,721M417,721C447,721 466,744 466,771C466,800 446,822 418,822C390,822 369,799 369,771C369,744 388,721 416,721z"
   id="glyph41028" />
<glyph
   unicode="Ù"
   horiz-adv-x="647"
   d="M75,674l0,-397C75,67 179,-11 317,-11C463,-11 572,73 572,280l0,394l-88,0l0,-400C484,126 419,60 320,60C230,60 163,124 163,274l0,400M181,828l129,-117l71,0l-94,117z"
   id="glyph41030" />
<glyph
   unicode="V"
   horiz-adv-x="558"
   d="M320,0l241,674l-93,0l-114,-333C323,253 296,168 277,90l-2,0C256,168 231,251 203,342l-105,332l-95,0l221,-674z"
   id="glyph41032" />
<glyph
   unicode="W"
   horiz-adv-x="846"
   d="M277,0l96,351C398,438 414,503 425,571l2,0C436,503 450,437 471,350l85,-350l91,0l191,674l-89,0l-89,-340C639,250 620,175 606,101l-2,0C594,172 576,251 557,332l-82,342l-91,0l-90,-340C271,247 250,167 239,100l-2,0C225,165 207,248 187,333l-80,341l-92,0l171,-674z"
   id="glyph41034" />
<glyph
   unicode="X"
   horiz-adv-x="571"
   d="M546,0l-210,346l205,328l-101,0l-91,-158C324,473 307,442 288,402l-3,0C267,438 248,472 223,516l-89,158l-101,0l198,-333l-206,-341l100,0l81,148C240,207 260,243 279,282l2,0C302,243 323,206 358,149l87,-149z"
   id="glyph41036" />
<glyph
   unicode="Y"
   horiz-adv-x="541"
   d="M314,0l0,287l225,387l-98,0l-97,-186C318,437 294,393 276,349l-2,0C253,396 232,437 207,488l-95,186l-100,0l214,-388l0,-286z"
   id="glyph41038" />
<glyph
   unicode="Ý"
   horiz-adv-x="541"
   d="M314,0l0,287l225,387l-98,0l-97,-186C318,437 294,393 276,349l-2,0C253,396 232,437 207,488l-95,186l-100,0l214,-388l0,-286M328,828l-94,-118l71,0l128,118z"
   id="glyph41040" />
<glyph
   unicode="Ÿ"
   horiz-adv-x="541"
   d="M314,0l0,287l225,387l-98,0l-97,-186C318,437 294,393 276,349l-2,0C253,396 232,437 207,488l-95,186l-100,0l214,-388l0,-286M182,721C211,721 230,744 230,771C230,800 210,822 182,822C154,822 133,799 133,771C133,744 153,721 181,721M365,721C395,721 414,744 414,771C414,800 394,822 366,822C338,822 317,799 317,771C317,744 336,721 364,721z"
   id="glyph41042" />
<glyph
   unicode="Z"
   horiz-adv-x="553"
   d="M30,0l492,0l0,73l-377,0l0,3l372,545l0,53l-455,0l0,-73l342,0l0,-3l-374,-547z"
   id="glyph41044" />
<glyph
   unicode="Ž"
   horiz-adv-x="553"
   d="M30,0l492,0l0,73l-377,0l0,3l372,545l0,53l-455,0l0,-73l342,0l0,-3l-374,-547M321,710l102,118l-70,0l-63,-74l-2,0l-63,74l-72,0l103,-118z"
   id="glyph41046" />
<glyph
   unicode="a"
   horiz-adv-x="482"
   d="M414,297C414,394 378,495 229,495C168,495 109,478 69,453l20,-59C123,417 170,430 216,430C315,431 326,358 326,318l0,-10C139,309 35,245 35,128C35,58 85,-11 183,-11C252,-11 305,23 331,61l3,0l8,-61l79,0C416,33 414,74 414,116M328,163C328,154 327,144 324,135C310,94 269,54 205,54C161,54 123,80 123,138C123,232 232,249 328,247z"
   id="glyph41048" />
<glyph
   unicode="á"
   horiz-adv-x="482"
   d="M414,297C414,394 378,495 229,495C168,495 109,478 69,453l20,-59C123,417 170,430 216,430C315,431 326,358 326,318l0,-10C139,309 35,245 35,128C35,58 85,-11 183,-11C252,-11 305,23 331,61l3,0l8,-61l79,0C416,33 414,74 414,116M328,163C328,154 327,144 324,135C310,94 269,54 205,54C161,54 123,80 123,138C123,232 232,249 328,247M276,686l-88,-143l62,0l122,143z"
   id="glyph41050" />
<glyph
   unicode="â"
   horiz-adv-x="482"
   d="M414,297C414,394 378,495 229,495C168,495 109,478 69,453l20,-59C123,417 170,430 216,430C315,431 326,358 326,318l0,-10C139,309 35,245 35,128C35,58 85,-11 183,-11C252,-11 305,23 331,61l3,0l8,-61l79,0C416,33 414,74 414,116M328,163C328,154 327,144 324,135C310,94 269,54 205,54C161,54 123,80 123,138C123,232 232,249 328,247M207,686l-94,-143l64,0l58,94l2,0l58,-94l66,0l-96,143z"
   id="glyph41052" />
<glyph
   unicode="´"
   horiz-adv-x="300"
   d="M189,686l-88,-143l62,0l122,143z"
   id="glyph41054" />
<glyph
   unicode="ä"
   horiz-adv-x="482"
   d="M414,297C414,394 378,495 229,495C168,495 109,478 69,453l20,-59C123,417 170,430 216,430C315,431 326,358 326,318l0,-10C139,309 35,245 35,128C35,58 85,-11 183,-11C252,-11 305,23 331,61l3,0l8,-61l79,0C416,33 414,74 414,116M328,163C328,154 327,144 324,135C310,94 269,54 205,54C161,54 123,80 123,138C123,232 232,249 328,247M150,557C179,557 198,580 198,607C198,635 177,657 150,657C122,657 100,634 100,607C100,580 120,557 149,557M332,557C362,557 381,580 381,607C381,635 360,657 333,657C304,657 283,634 283,607C283,580 303,557 331,557z"
   id="glyph41056" />
<glyph
   unicode="æ"
   horiz-adv-x="773"
   d="M734,233C736,243 737,258 737,273C737,353 696,496 548,496C471,496 411,457 379,394l-2,0C357,456 308,496 221,496C173,496 113,480 70,453l21,-58C120,415 169,431 215,431C313,431 327,347 327,323l0,-20C140,306 36,240 36,127C36,57 86,-10 187,-10C270,-10 336,30 366,97l3,0C397,28 470,-10 553,-10C617,-10 674,3 712,23l-16,62C670,73 631,58 564,58C473,58 406,119 409,234M329,173C329,161 327,149 324,138C310,93 270,54 207,55C161,55 123,84 123,135C123,230 236,246 329,244M409,297C412,352 451,434 539,434C628,434 655,346 653,297z"
   id="glyph41058" />
<glyph
   unicode="à"
   horiz-adv-x="482"
   d="M414,297C414,394 378,495 229,495C168,495 109,478 69,453l20,-59C123,417 170,430 216,430C315,431 326,358 326,318l0,-10C139,309 35,245 35,128C35,58 85,-11 183,-11C252,-11 305,23 331,61l3,0l8,-61l79,0C416,33 414,74 414,116M328,163C328,154 327,144 324,135C310,94 269,54 205,54C161,54 123,80 123,138C123,232 232,249 328,247M95,686l122,-143l62,0l-88,143z"
   id="glyph41060" />
<glyph
   unicode="&amp;"
   horiz-adv-x="605"
   d="M602,0C562,43 527,81 491,119C541,178 570,262 588,368l-80,0C495,283 474,218 443,171C400,219 336,292 279,359l0,3C386,415 427,471 427,542C427,630 362,685 278,685C166,685 106,601 106,519C106,471 129,422 163,378l0,-3C86,332 31,270 31,178C31,77 107,-11 238,-11C313,-11 377,12 435,65C461,38 479,19 498,0M253,55C172,55 116,114 116,191C116,262 166,305 203,328C277,242 352,159 392,116C360,81 312,55 254,55M273,625C328,625 351,579 351,538C351,481 308,445 239,406C211,442 188,479 188,527C188,579 217,625 272,625z"
   id="glyph41062" />
<glyph
   unicode="å"
   horiz-adv-x="482"
   d="M414,297C414,394 378,495 229,495C168,495 109,478 69,453l20,-59C123,417 170,430 216,430C315,431 326,358 326,318l0,-10C139,309 35,245 35,128C35,58 85,-11 183,-11C252,-11 305,23 331,61l3,0l8,-61l79,0C416,33 414,74 414,116M328,163C328,154 327,144 324,135C310,94 269,54 205,54C161,54 123,80 123,138C123,232 232,249 328,247M240,720C178,720 138,678 138,626C138,575 180,534 240,534C297,534 340,574 340,626C340,679 301,720 241,720M239,682C271,682 291,657 291,627C291,597 271,572 239,572C209,572 189,599 189,626C189,656 208,682 238,682z"
   id="glyph41064" />
<glyph
   unicode="^"
   horiz-adv-x="596"
   d="M536,189l-206,461l-63,0l-206,-461l69,0l167,388l2,0l167,-388z"
   id="glyph41066" />
<glyph
   unicode="~"
   horiz-adv-x="596"
   d="M109,211C110,270 132,295 168,295C204,295 241,274 288,251C357,219 394,207 433,207C495,207 552,247 547,358l-59,0C487,303 470,274 434,274C397,274 360,292 310,316C242,348 210,361 168,361C99,361 46,310 49,211z"
   id="glyph41068" />
<glyph
   unicode="*"
   horiz-adv-x="415"
   d="M269,685l-61,-139l-2,0l-62,138l-61,-34l94,-123l0,-2l-147,19l0,-68l148,19l0,-2l-95,-122l57,-36l64,141l2,0l61,-140l63,35l-96,121l0,2l151,-18l0,68l-151,-20l0,2l95,124z"
   id="glyph41070" />
<glyph
   unicode="@"
   horiz-adv-x="737"
   d="M449,348C438,286 384,212 326,212C282,212 260,243 260,288C260,385 331,468 420,468C443,468 460,464 470,460M508,72C468,49 415,37 357,37C209,37 100,140 100,306C100,510 237,639 400,639C555,639 642,535 642,389C642,274 585,205 534,207C501,208 490,243 505,319l33,181C513,512 474,521 431,521C292,521 194,408 194,284C194,205 244,158 302,158C362,158 408,187 444,246l3,0C445,184 481,158 521,158C615,158 698,246 698,396C698,563 582,685 408,685C186,685 43,507 43,301C43,109 182,-11 346,-11C413,-11 469,0 524,29z"
   id="glyph41072" />
<glyph
   unicode="ã"
   horiz-adv-x="482"
   d="M414,297C414,394 378,495 229,495C168,495 109,478 69,453l20,-59C123,417 170,430 216,430C315,431 326,358 326,318l0,-10C139,309 35,245 35,128C35,58 85,-11 183,-11C252,-11 305,23 331,61l3,0l8,-61l79,0C416,33 414,74 414,116M328,163C328,154 327,144 324,135C310,94 269,54 205,54C161,54 123,80 123,138C123,232 232,249 328,247M161,561C163,589 172,606 187,606C200,606 212,600 232,589C252,577 271,567 293,567C340,567 361,602 360,663l-44,0C314,630 305,621 290,621C274,621 260,629 245,638C221,651 205,661 181,661C160,661 144,650 132,632C121,615 116,590 116,561z"
   id="glyph41074" />
<glyph
   unicode="b"
   horiz-adv-x="569"
   d="M73,125C73,82 72,33 69,0l76,0l5,80l2,0C189,16 244,-11 314,-11C422,-11 532,75 532,249C532,395 448,495 328,495C250,495 194,461 163,407l-2,0l0,303l-88,0M161,281C161,295 163,307 166,318C183,384 239,426 299,426C393,426 443,343 443,245C443,134 389,59 296,59C233,59 181,101 164,162C162,172 161,183 161,194z"
   id="glyph41076" />
<glyph
   unicode="\"
   horiz-adv-x="346"
   d="M347,-40l-277,725l-68,0l277,-725z"
   id="glyph41078" />
<glyph
   unicode="|"
   horiz-adv-x="239"
   d="M86,750l0,-1000l67,0l0,1000z"
   id="glyph41080" />
<glyph
   unicode="{"
   horiz-adv-x="284"
   d="M28,262C99,262 109,219 109,187C109,161 105,134 102,107C97,80 93,52 93,25C93,-76 156,-112 238,-112l21,0l0,55l-17,0C186,-56 162,-26 162,30C162,54 166,77 169,102C173,126 177,151 177,178C178,242 149,276 105,287l0,2C149,301 178,333 177,397C177,424 173,448 169,473C166,497 162,521 162,544C162,598 183,629 242,630l17,0l0,55l-20,0C154,685 93,646 93,554C93,527 97,499 101,471C105,443 109,415 109,387C109,352 99,313 28,313z"
   id="glyph41082" />
<glyph
   unicode="}"
   horiz-adv-x="284"
   d="M256,313C185,313 175,352 175,387C175,415 179,443 183,471C187,499 191,527 191,554C191,646 130,685 45,685l-20,0l0,-55l17,0C101,629 122,598 122,544C122,521 118,497 115,473C111,448 107,424 107,397C106,333 135,301 179,289l0,-2C135,276 106,242 107,178C107,151 111,126 115,102C118,77 122,54 122,30C122,-26 98,-56 42,-57l-17,0l0,-55l21,0C128,-112 191,-76 191,25C191,52 187,80 183,107C179,134 175,161 175,187C175,219 185,262 256,262z"
   id="glyph41084" />
<glyph
   unicode="["
   horiz-adv-x="284"
   d="M264,-112l0,55l-114,0l0,687l114,0l0,55l-183,0l0,-797z"
   id="glyph41086" />
<glyph
   unicode="]"
   horiz-adv-x="284"
   d="M20,685l0,-55l114,0l0,-687l-114,0l0,-55l183,0l0,797z"
   id="glyph41088" />
<glyph
   unicode="˘"
   horiz-adv-x="300"
   d="M30,681C30,621 63,562 150,562C225,562 270,609 271,681l-50,0C218,649 198,612 150,612C130,612 114,620 102,632C90,645 83,662 80,681z"
   id="glyph41090" />
<glyph
   unicode="¦"
   horiz-adv-x="239"
   d="M86,174l0,-350l67,0l0,350M86,674l0,-350l67,0l0,350z"
   id="glyph41092" />
<glyph
   unicode="•"
   horiz-adv-x="282"
   d="M141,239C199,239 246,286 246,344C246,403 199,449 141,449C83,449 35,402 36,344C36,285 83,239 140,239z"
   id="glyph41094" />
<glyph
   unicode="c"
   horiz-adv-x="448"
   d="M403,83C378,72 345,60 295,60C199,60 127,129 127,241C127,342 187,425 298,425C346,425 379,413 400,402l20,67C396,482 350,495 298,495C140,495 38,386 38,237C38,88 133,-11 279,-11C344,-11 395,6 418,17z"
   id="glyph41096" />
<glyph
   unicode="ˇ"
   horiz-adv-x="300"
   d="M182,543l95,143l-65,0l-60,-95l-2,0l-59,95l-67,0l97,-143z"
   id="glyph41098" />
<glyph
   unicode="ç"
   horiz-adv-x="447"
   d="M403,83C379,73 344,60 295,60C199,60 127,129 127,241C127,342 187,425 297,425C346,425 379,413 400,402l20,67C396,482 349,495 297,495C140,495 38,386 38,237C38,104 116,9 237,-7l-42,-74C243,-85 272,-96 273,-122C273,-146 253,-154 230,-154C211,-154 192,-149 176,-140l-14,-42C178,-193 206,-200 229,-200C285,-200 334,-177 334,-119C334,-80 300,-55 264,-50l25,40C350,-9 397,7 419,18z"
   id="glyph41100" />
<glyph
   unicode="¸"
   horiz-adv-x="300"
   d="M135,3l-47,-84C135,-85 165,-97 166,-123C166,-146 145,-154 123,-154C106,-154 86,-149 69,-140l-15,-42C71,-193 98,-200 122,-200C178,-200 227,-178 227,-119C227,-80 193,-54 157,-50l33,53z"
   id="glyph41102" />
<glyph
   unicode="¢"
   horiz-adv-x="513"
   d="M331,-15l0,101C380,89 422,104 441,115l-15,64C402,167 366,154 312,154C224,154 155,219 155,329C155,428 217,508 315,508C365,508 399,495 420,483l20,67C416,562 376,574 331,575l0,99l-63,0l0,-101C146,553 67,455 67,326C67,253 89,195 124,157C160,118 204,94 268,87l0,-102z"
   id="glyph41104" />
<glyph
   unicode="ˆ"
   horiz-adv-x="300"
   d="M120,686l-94,-143l64,0l58,94l2,0l58,-94l66,0l-96,143z"
   id="glyph41106" />
<glyph
   unicode=":"
   horiz-adv-x="207"
   d="M112,342C148,342 171,369 171,404C171,441 148,467 112,467C78,467 53,441 53,404C53,369 77,342 111,342M111,-11C147,-11 170,16 170,51C170,88 147,114 111,114C77,114 52,88 52,51C52,16 76,-11 110,-11z"
   id="glyph41108" />
<glyph
   unicode=","
   horiz-adv-x="207"
   d="M78,-117C106,-70 150,41 174,126l-98,-10C65,43 38,-64 16,-124z"
   id="glyph41110" />
<glyph
   unicode="©"
   horiz-adv-x="677"
   d="M340,648C170,648 36,510 36,340C36,168 170,30 340,30C509,30 641,168 641,340C641,510 509,648 341,648M341,607C482,607 592,489 592,340C592,188 482,69 341,71C197,71 87,188 87,337C87,489 197,607 340,607M474,493C460,505 416,520 364,520C263,520 173,448 173,334C173,233 240,153 356,153C397,153 444,161 479,184l-12,38C444,207 406,196 365,196C274,196 225,259 225,337C225,417 271,477 364,477C412,477 449,461 462,453z"
   id="glyph41112" />
<glyph
   unicode="¤"
   horiz-adv-x="513"
   d="M256,534C212,534 170,518 141,493l-68,76l-45,-46l76,-71C82,424 65,381 65,329C65,279 82,235 102,208l-72,-70l43,-44l67,74C167,143 213,128 254,128C294,128 341,142 371,170l69,-76l44,44l-75,74C428,237 444,280 444,334C444,383 429,425 409,452l79,71l-45,46l-71,-75C345,518 303,534 257,534M256,471C333,471 374,403 374,333C374,230 311,191 255,191C204,191 137,233 137,330C137,408 182,471 255,471z"
   id="glyph41114" />
<glyph
   unicode="d"
   horiz-adv-x="564"
   d="M403,710l0,-288l-2,0C380,460 330,495 255,495C138,495 37,397 38,235C38,88 129,-11 246,-11C325,-11 383,30 410,84l2,0l4,-84l79,0C492,33 491,82 491,125l0,585M403,203C403,189 402,177 399,165C383,100 329,60 270,60C176,60 127,141 127,240C127,346 181,426 272,426C338,426 386,380 399,325C402,313 403,299 403,287z"
   id="glyph41116" />
<glyph
   unicode="†"
   horiz-adv-x="500"
   d="M209,674l8,-212l-174,8l0,-72l174,7l-8,-455l82,0l-8,455l174,-7l0,72l-174,-8l8,212z"
   id="glyph41118" />
<glyph
   unicode="‡"
   horiz-adv-x="500"
   d="M210,674l6,-201l-173,8l0,-72l173,7l0,-203l-173,8l0,-73l172,8l-6,-206l81,0l-6,206l173,-8l0,73l-173,-8l0,203l173,-7l0,72l-173,-8l6,201z"
   id="glyph41120" />
<glyph
   unicode="°"
   horiz-adv-x="318"
   d="M162,685C88,685 29,627 29,551C29,481 82,422 160,422C229,422 294,475 294,555C294,623 245,685 163,685M162,638C219,638 241,591 241,554C241,505 208,469 162,469C117,469 84,505 84,551C84,593 110,638 161,638z"
   id="glyph41122" />
<glyph
   unicode="¨"
   horiz-adv-x="300"
   d="M59,557C88,557 107,580 107,607C107,635 86,657 59,657C31,657 9,634 9,607C9,580 29,557 58,557M241,557C271,557 290,580 290,607C290,635 269,657 242,657C213,657 192,634 192,607C192,580 212,557 240,557z"
   id="glyph41124" />
<glyph
   unicode="÷"
   horiz-adv-x="596"
   d="M298,387C330,387 351,411 351,442C351,475 330,498 298,498C267,498 245,475 245,442C245,411 266,387 297,387M555,237l0,60l-516,0l0,-60M297,36C329,36 350,60 350,91C350,124 329,147 297,147C266,147 244,124 244,91C244,60 265,36 296,36z"
   id="glyph41126" />
<glyph
   unicode="$"
   horiz-adv-x="513"
   d="M281,-86l0,104C384,35 439,109 439,189C439,278 387,329 284,371C197,408 160,434 160,485C160,526 189,572 266,572C330,572 371,549 392,537l25,66C388,620 347,636 287,638l0,97l-63,0l0,-100C133,620 74,557 74,474C74,387 137,340 239,300C313,270 352,236 352,181C352,124 304,83 232,83C177,83 125,102 90,126l-24,-67C101,34 160,16 218,15l0,-101z"
   id="glyph41128" />
<glyph
   unicode="˙"
   horiz-adv-x="300"
   d="M140,557C168,557 188,580 188,607C188,635 167,657 140,657C112,657 90,634 90,607C90,580 111,557 139,557z"
   id="glyph41130" />
<glyph
   unicode="ı"
   horiz-adv-x="234"
   d="M161,0l0,484l-88,0l0,-484z"
   id="glyph41132" />
<glyph
   unicode="e"
   horiz-adv-x="501"
   d="M462,226C464,236 465,250 465,268C465,357 424,496 266,496C125,496 38,381 38,234C38,89 128,-10 276,-10C353,-10 407,7 438,21l-16,62C390,70 351,59 288,59C200,59 125,108 123,227M124,290C131,351 169,433 259,433C357,433 381,345 380,290z"
   id="glyph41134" />
<glyph
   unicode="é"
   horiz-adv-x="501"
   d="M462,226C464,236 465,250 465,268C465,357 424,496 266,496C125,496 38,381 38,234C38,89 128,-10 276,-10C353,-10 407,7 438,21l-16,62C390,70 351,59 288,59C200,59 125,108 123,227M124,290C131,351 169,433 259,433C357,433 381,345 380,290M305,686l-88,-143l62,0l122,143z"
   id="glyph41136" />
<glyph
   unicode="ê"
   horiz-adv-x="501"
   d="M462,226C464,236 465,250 465,268C465,357 424,496 266,496C125,496 38,381 38,234C38,89 128,-10 276,-10C353,-10 407,7 438,21l-16,62C390,70 351,59 288,59C200,59 125,108 123,227M124,290C131,351 169,433 259,433C357,433 381,345 380,290M234,686l-94,-143l64,0l58,94l2,0l58,-94l66,0l-96,143z"
   id="glyph41138" />
<glyph
   unicode="ë"
   horiz-adv-x="501"
   d="M462,226C464,236 465,250 465,268C465,357 424,496 266,496C125,496 38,381 38,234C38,89 128,-10 276,-10C353,-10 407,7 438,21l-16,62C390,70 351,59 288,59C200,59 125,108 123,227M124,290C131,351 169,433 259,433C357,433 381,345 380,290M178,557C207,557 226,580 226,607C226,635 205,657 178,657C150,657 128,634 128,607C128,580 148,557 177,557M360,557C390,557 409,580 409,607C409,635 388,657 361,657C332,657 311,634 311,607C311,580 331,557 359,557z"
   id="glyph41140" />
<glyph
   unicode="è"
   horiz-adv-x="501"
   d="M462,226C464,236 465,250 465,268C465,357 424,496 266,496C125,496 38,381 38,234C38,89 128,-10 276,-10C353,-10 407,7 438,21l-16,62C390,70 351,59 288,59C200,59 125,108 123,227M124,290C131,351 169,433 259,433C357,433 381,345 380,290M135,686l122,-143l62,0l-88,143z"
   id="glyph41142" />
<glyph
   unicode="8"
   horiz-adv-x="513"
   d="M262,661C148,661 61,591 61,488C61,432 92,376 165,342l0,-3C86,305 37,246 37,164C37,69 119,-11 255,-11C379,-11 476,64 476,178C476,256 426,314 345,346l0,3C425,386 453,446 453,501C453,583 389,661 263,661M257,53C175,53 125,111 128,176C128,238 169,289 245,311C333,286 388,247 388,169C388,102 337,53 258,53M261,598C339,598 370,544 370,492C370,433 327,393 271,374C196,394 146,429 147,494C147,550 187,598 260,598z"
   id="glyph41144" />
<glyph
   unicode="…"
   horiz-adv-x="1000"
   d="M166,-11C202,-11 226,16 226,52C226,89 202,115 167,115C132,115 107,88 107,52C107,16 131,-11 165,-11M498,-11C534,-11 558,16 558,52C558,89 534,115 499,115C464,115 439,88 439,52C439,16 463,-11 497,-11M830,-11C866,-11 890,16 890,52C890,89 866,115 831,115C796,115 771,88 771,52C771,16 795,-11 829,-11z"
   id="glyph41146" />
<glyph
   unicode="—"
   horiz-adv-x="1000"
   d="M30,284l0,-60l940,0l0,60z"
   id="glyph41148" />
<glyph
   unicode="–"
   horiz-adv-x="500"
   d="M30,284l0,-60l440,0l0,60z"
   id="glyph41150" />
<glyph
   unicode="="
   horiz-adv-x="596"
   d="M556,337l0,60l-516,0l0,-60M556,141l0,60l-516,0l0,-60z"
   id="glyph41152" />
<glyph
   unicode="ð"
   horiz-adv-x="541"
   d="M267,55C187,55 128,135 128,237C128,317 167,424 271,424C322,424 355,402 377,377C402,346 411,306 411,243C411,133 355,55 268,55M117,507l142,66C310,534 348,491 377,444l-2,-3C336,476 300,484 262,484C148,483 39,391 39,236C39,85 137,-11 268,-11C383,-11 502,67 502,252C502,327 487,391 459,447C430,507 387,561 332,606l106,50l-22,44l-127,-61C246,670 196,699 149,720l-39,-55C147,647 185,627 214,605l-116,-55z"
   id="glyph41154" />
<glyph
   unicode="!"
   horiz-adv-x="230"
   d="M149,193l14,481l-96,0l14,-481M115,-11C151,-11 174,16 174,51C174,87 151,113 115,113C81,113 56,87 56,51C56,16 80,-11 114,-11z"
   id="glyph41156" />
<glyph
   unicode="¡"
   horiz-adv-x="230"
   d="M163,-194l-14,477l-68,0l-14,-477M115,488C81,488 56,462 56,426C56,391 80,364 115,364C151,364 174,391 174,426C174,462 151,488 116,488z"
   id="glyph41158" />
<glyph
   unicode="f"
   horiz-adv-x="292"
   d="M169,0l0,417l116,0l0,67l-117,0l0,26C168,584 188,650 262,650C288,650 305,645 319,639l11,68C313,714 287,721 255,721C215,721 171,708 138,676C97,637 81,575 81,507l0,-23l-67,0l0,-67l67,0l0,-417z"
   id="glyph41160" />
<glyph
   unicode="ﬁ"
   horiz-adv-x="523"
   d="M169,0l0,417l193,0l0,-417l88,0l0,484l-282,0l0,24C168,585 196,650 289,650C332,650 369,637 391,622l25,67C391,707 338,721 293,721C157,721 81,638 81,511l0,-27l-67,0l0,-67l67,0l0,-417z"
   id="glyph41162" />
<glyph
   unicode="5"
   horiz-adv-x="513"
   d="M433,650l-311,0l-42,-310C104,344 133,347 171,347C300,347 357,288 357,202C358,114 286,60 204,60C144,60 91,80 64,96l-22,-67C74,9 133,-11 204,-11C345,-11 446,84 446,211C446,295 404,352 353,380C313,404 264,415 213,415C189,415 175,413 160,411l25,165l248,0z"
   id="glyph41164" />
<glyph
   unicode="ﬂ"
   horiz-adv-x="523"
   d="M169,0l0,417l113,0l0,67l-114,0l0,25C168,586 199,653 291,653C325,653 348,648 363,640l0,-640l88,0l0,689C414,709 362,721 305,721C237,721 187,704 150,672C104,633 81,573 81,505l0,-21l-67,0l0,-67l67,0l0,-417z"
   id="glyph41166" />
<glyph
   unicode="ƒ"
   horiz-adv-x="513"
   d="M111,338l91,0l-22,-197C168,39 144,-16 83,-16C62,-16 44,-13 27,-5l-16,-62C27,-77 55,-84 88,-84C206,-84 247,4 262,134l25,204l128,0l0,64l-120,0l6,51C309,527 338,592 407,592C427,592 444,588 459,582l16,64C461,654 436,660 407,661C272,661 228,546 216,448l-6,-46l-99,0z"
   id="glyph41168" />
<glyph
   unicode="4"
   horiz-adv-x="513"
   d="M400,0l0,177l91,0l0,68l-91,0l0,405l-95,0l-290,-416l0,-57l302,0l0,-177M104,245l0,2l159,221C281,499 297,527 317,565l3,0C318,531 317,497 317,463l0,-218z"
   id="glyph41170" />
<glyph
   unicode="⁄"
   horiz-adv-x="418"
   d="M47,-11l380,672l-56,0l-380,-672z"
   id="glyph41172" />
<glyph
   unicode="g"
   horiz-adv-x="559"
   d="M487,352C487,411 488,450 491,484l-78,0l-3,-72l-2,0C386,452 341,495 257,495C145,495 38,403 38,239C38,104 124,2 244,2C319,2 372,38 398,83l2,0l0,-53C400,-93 334,-140 244,-140C184,-140 134,-122 102,-101l-22,-68C119,-195 183,-209 241,-209C302,-209 370,-194 418,-151C464,-108 487,-41 487,71M399,207C399,191 397,174 392,160C374,103 325,69 270,69C176,69 127,149 127,243C127,356 187,427 271,427C336,427 378,385 394,333C398,321 399,308 399,294z"
   id="glyph41174" />
<glyph
   unicode="ß"
   horiz-adv-x="548"
   d="M161,0l0,456C161,598 204,652 281,652C342,652 385,612 385,543C385,526 382,512 376,500C318,472 287,428 287,377C287,321 323,284 365,244C400,211 419,183 419,141C419,95 385,57 321,57C291,57 263,64 237,77l-16,-67C250,-5 289,-11 327,-11C438,-11 506,54 506,148C506,220 465,262 425,302C394,334 374,355 374,389C374,423 401,451 446,470C457,487 469,518 469,552C469,662 386,721 290,721C230,721 182,704 145,670C100,630 73,566 73,452l0,-452z"
   id="glyph41176" />
<glyph
   unicode="`"
   horiz-adv-x="300"
   d="M22,686l122,-143l62,0l-88,143z"
   id="glyph41178" />
<glyph
   unicode="&gt;"
   horiz-adv-x="596"
   d="M530,293l-464,238l0,-69l394,-196l0,-2l-394,-195l0,-69l464,237z"
   id="glyph41180" />
<glyph
   unicode="«"
   horiz-adv-x="419"
   d="M232,436l-71,0l-132,-184l133,-184l71,0l-134,184M396,436l-71,0l-132,-184l133,-184l71,0l-134,184z"
   id="glyph41182" />
<glyph
   unicode="»"
   horiz-adv-x="419"
   d="M157,252l-133,-184l70,0l133,184l-133,184l-71,0M320,252l-133,-184l70,0l133,184l-133,184l-71,0z"
   id="glyph41184" />
<glyph
   unicode="‹"
   horiz-adv-x="255"
   d="M232,436l-71,0l-132,-184l133,-184l71,0l-134,184z"
   id="glyph41186" />
<glyph
   unicode="›"
   horiz-adv-x="255"
   d="M157,252l-133,-184l70,0l133,184l-133,184l-71,0z"
   id="glyph41188" />
<glyph
   unicode="h"
   horiz-adv-x="555"
   d="M73,0l88,0l0,292C161,309 162,322 167,334C184,382 228,422 285,422C368,422 397,357 397,278l0,-278l88,0l0,288C485,455 381,495 316,495C283,495 252,486 226,470C199,456 177,433 163,408l-2,0l0,302l-88,0z"
   id="glyph41190" />
<glyph
   unicode="˝"
   horiz-adv-x="300"
   d="M124,685l-79,-136l54,0l110,136M267,685l-78,-136l54,0l110,136z"
   id="glyph41192" />
<glyph
   unicode="-"
   horiz-adv-x="307"
   d="M30,302l0,-64l247,0l0,64z"
   id="glyph41194" />
<glyph
   unicode="i"
   horiz-adv-x="234"
   d="M161,0l0,484l-88,0l0,-484M116,573C151,573 173,599 173,630C173,661 151,686 117,686C83,686 60,661 60,630C60,599 82,573 115,573z"
   id="glyph41196" />
<glyph
   unicode="í"
   horiz-adv-x="234"
   d="M161,0l0,484l-88,0l0,-484M161,686l-88,-143l62,0l122,143z"
   id="glyph41198" />
<glyph
   unicode="î"
   horiz-adv-x="234"
   d="M161,0l0,484l-88,0l0,-484M87,686l-94,-143l64,0l58,94l2,0l58,-94l66,0l-96,143z"
   id="glyph41200" />
<glyph
   unicode="ï"
   horiz-adv-x="234"
   d="M161,0l0,484l-88,0l0,-484M26,557C55,557 74,580 74,607C74,635 53,657 26,657C-2,657 -24,634 -24,607C-24,580 -4,557 25,557M208,557C238,557 257,580 257,607C257,635 236,657 209,657C180,657 159,634 159,607C159,580 179,557 207,557z"
   id="glyph41202" />
<glyph
   unicode="ì"
   horiz-adv-x="234"
   d="M161,0l0,484l-88,0l0,-484M-28,686l122,-143l62,0l-88,143z"
   id="glyph41204" />
<glyph
   unicode="j"
   horiz-adv-x="243"
   d="M-36,-211C11,-211 75,-195 114,-156C157,-112 172,-51 172,43l0,441l-88,0l0,-407C84,-39 74,-78 50,-105C29,-128 -5,-139 -46,-142M127,573C163,573 184,599 184,630C184,661 162,686 128,686C94,686 71,661 71,630C71,599 93,573 126,573z"
   id="glyph41206" />
<glyph
   unicode="k"
   horiz-adv-x="469"
   d="M161,710l-88,0l0,-710l88,0l0,182l45,51l166,-233l107,0l-213,285l187,199l-105,0l-143,-167C191,301 175,279 163,262l-2,0z"
   id="glyph41208" />
<glyph
   unicode="l"
   horiz-adv-x="234"
   d="M73,0l88,0l0,710l-88,0z"
   id="glyph41210" />
<glyph
   unicode="&lt;"
   horiz-adv-x="596"
   d="M66,238l464,-238l0,69l-391,195l0,2l391,196l0,69l-464,-239z"
   id="glyph41212" />
<glyph
   unicode="¬"
   horiz-adv-x="596"
   d="M40,399l0,-60l452,0l0,-218l64,0l0,278z"
   id="glyph41214" />
<glyph
   unicode="ł"
   horiz-adv-x="242"
   d="M165,0l0,355l71,61l0,70l-71,-61l0,285l-88,0l0,-352l-68,-59l0,-69l68,58l0,-288z"
   id="glyph41216" />
<glyph
   unicode="m"
   horiz-adv-x="834"
   d="M73,0l86,0l0,292C159,307 161,322 166,335C180,379 221,423 275,423C342,423 376,368 376,290l0,-290l86,0l0,300C462,315 465,331 469,344C485,386 523,423 574,423C644,423 679,368 679,274l0,-274l86,0l0,285C765,453 670,495 605,495C559,495 528,483 499,461C479,446 459,426 444,398l-2,0C421,455 371,495 306,495C225,495 180,452 153,406l-3,0l-4,78l-77,0C71,444 73,404 73,353z"
   id="glyph41218" />
<glyph
   unicode="¯"
   horiz-adv-x="300"
   d="M38,639l0,-54l225,0l0,54z"
   id="glyph41220" />
<glyph
   unicode="−"
   horiz-adv-x="596"
   d="M40,297l0,-60l516,0l0,60z"
   id="glyph41222" />
<glyph
   unicode="µ"
   horiz-adv-x="551"
   d="M478,484l-88,0l0,-307C388,124 336,62 268,62C184,62 158,131 158,210l0,274l-88,0l0,-682l82,0l-5,243l3,0C176,-2 223,-10 251,-10C329,-10 376,41 397,80l2,0l5,-80l78,0C479,38 478,82 478,132z"
   id="glyph41224" />
<glyph
   unicode="×"
   horiz-adv-x="596"
   d="M40,482l215,-219l-215,-219l44,-44l214,219l214,-219l44,44l-214,219l214,219l-44,44l-214,-219l-214,219z"
   id="glyph41226" />
<glyph
   unicode="n"
   horiz-adv-x="555"
   d="M73,0l88,0l0,292C161,306 163,322 167,333C183,382 228,423 285,423C368,423 397,357 397,279l0,-279l88,0l0,289C485,455 381,495 314,495C234,495 178,450 154,405l-2,0l-5,79l-78,0C72,444 73,404 73,353z"
   id="glyph41228" />
<glyph
   unicode="9"
   horiz-adv-x="513"
   d="M96,-11C116,-12 145,-10 177,-6C247,2 316,33 366,81C430,144 478,244 478,387C478,554 396,661 263,661C130,661 40,553 40,431C40,319 115,231 232,231C298,231 350,257 386,301l3,0C377,224 346,167 303,128C266,92 218,71 167,65C137,61 115,60 96,61M256,594C348,594 390,510 389,398C389,384 386,374 382,366C358,327 312,298 253,298C177,298 128,355 128,436C128,528 181,594 255,594z"
   id="glyph41230" />
<glyph
   unicode="ñ"
   horiz-adv-x="555"
   d="M73,0l88,0l0,292C161,306 163,322 167,333C183,382 228,423 285,423C368,423 397,357 397,279l0,-279l88,0l0,289C485,455 381,495 314,495C234,495 178,450 154,405l-2,0l-5,79l-78,0C72,444 73,404 73,353M202,561C204,589 213,606 228,606C241,606 253,600 273,589C293,577 312,567 334,567C381,567 402,602 401,663l-44,0C355,630 346,621 331,621C315,621 301,629 286,638C262,651 246,661 222,661C201,661 185,650 173,632C162,615 157,590 157,561z"
   id="glyph41232" />
<glyph
   unicode="#"
   horiz-adv-x="497"
   d="M188,255l19,145l104,0l-19,-145M154,0l25,196l104,0l-26,-196l60,0l26,196l95,0l0,59l-86,0l18,145l91,0l0,59l-82,0l25,191l-59,0l-25,-191l-105,0l26,191l-59,0l-26,-191l-95,0l0,-59l87,0l-19,-145l-92,0l0,-59l83,0l-26,-196z"
   id="glyph41234" />
<glyph
   unicode="o"
   horiz-adv-x="549"
   d="M271,-11C386,-11 511,67 511,247C511,394 417,495 278,495C145,495 38,400 38,238C38,85 140,-11 270,-11M272,55C187,55 127,135 127,241C127,333 172,429 275,429C379,429 420,326 420,244C420,134 357,55 273,55z"
   id="glyph41236" />
<glyph
   unicode="ó"
   horiz-adv-x="549"
   d="M271,-11C386,-11 511,67 511,247C511,394 417,495 278,495C145,495 38,400 38,238C38,85 140,-11 270,-11M272,55C187,55 127,135 127,241C127,333 172,429 275,429C379,429 420,326 420,244C420,134 357,55 273,55M311,686l-88,-143l62,0l122,143z"
   id="glyph41238" />
<glyph
   unicode="ô"
   horiz-adv-x="549"
   d="M271,-11C386,-11 511,67 511,247C511,394 417,495 278,495C145,495 38,400 38,238C38,85 140,-11 270,-11M272,55C187,55 127,135 127,241C127,333 172,429 275,429C379,429 420,326 420,244C420,134 357,55 273,55M245,686l-94,-143l64,0l58,94l2,0l58,-94l66,0l-96,143z"
   id="glyph41240" />
<glyph
   unicode="ö"
   horiz-adv-x="549"
   d="M271,-11C386,-11 511,67 511,247C511,394 417,495 278,495C145,495 38,400 38,238C38,85 140,-11 270,-11M272,55C187,55 127,135 127,241C127,333 172,429 275,429C379,429 420,326 420,244C420,134 357,55 273,55M184,557C213,557 232,580 232,607C232,635 211,657 184,657C156,657 134,634 134,607C134,580 154,557 183,557M366,557C396,557 415,580 415,607C415,635 394,657 367,657C338,657 317,634 317,607C317,580 337,557 365,557z"
   id="glyph41242" />
<glyph
   unicode="œ"
   horiz-adv-x="863"
   d="M824,227C826,236 827,252 827,269C827,355 787,496 631,496C556,496 490,458 454,380l-2,0C422,454 352,496 270,496C140,496 38,398 38,240C38,87 136,-10 264,-10C338,-10 415,25 451,104l2,0C491,25 561,-10 645,-10C698,-10 763,1 802,23l-16,62C753,72 716,58 656,58C563,58 495,118 495,228M271,430C370,430 413,335 413,243C413,131 356,56 271,56C188,56 128,137 128,242C128,325 165,430 270,430M493,291C499,352 536,433 623,433C720,433 742,345 741,291z"
   id="glyph41244" />
<glyph
   unicode="˛"
   horiz-adv-x="300"
   d="M164,0C126,-14 66,-69 66,-122C66,-171 102,-200 151,-200C180,-200 205,-194 225,-184l-9,40C200,-152 182,-154 167,-154C144,-154 123,-139 124,-110C123,-71 169,-26 218,0z"
   id="glyph41246" />
<glyph
   unicode="ò"
   horiz-adv-x="549"
   d="M271,-11C386,-11 511,67 511,247C511,394 417,495 278,495C145,495 38,400 38,238C38,85 140,-11 270,-11M272,55C187,55 127,135 127,241C127,333 172,429 275,429C379,429 420,326 420,244C420,134 357,55 273,55M143,686l122,-143l62,0l-88,143z"
   id="glyph41248" />
<glyph
   unicode="1"
   horiz-adv-x="513"
   d="M236,0l85,0l0,650l-75,0l-142,-76l17,-67l113,61l2,0z"
   id="glyph41250" />
<glyph
   unicode="½"
   horiz-adv-x="759"
   d="M184,266l0,390l-61,0l-94,-44l11,-52l72,35l2,0l0,-329M175,-11l379,672l-56,0l-379,-672M440,0l270,0l0,55l-170,0l0,2l30,28C646,153 703,207 703,282C703,336 665,395 571,395C520,395 475,376 448,354l21,-46C488,322 518,339 553,339C605,339 629,307 629,269C629,218 586,171 503,95l-63,-58z"
   id="glyph41252" />
<glyph
   unicode="¼"
   horiz-adv-x="759"
   d="M663,0l0,103l60,0l0,49l-60,0l0,243l-73,0l-193,-253l0,-39l200,0l0,-103M597,152l-127,0l-1,1l96,125C576,294 585,312 598,333l2,0C599,314 597,293 597,270M198,266l0,390l-61,0l-94,-44l11,-52l72,35l2,0l0,-329M195,-11l379,672l-56,0l-380,-672z"
   id="glyph41254" />
<glyph
   unicode="¹"
   horiz-adv-x="319"
   d="M216,266l0,390l-61,0l-94,-44l11,-52l72,35l2,0l0,-329z"
   id="glyph41256" />
<glyph
   unicode="ª"
   horiz-adv-x="346"
   d="M304,266C301,289 299,317 299,344l0,107C299,523 272,591 172,591C129,591 87,579 58,558l16,-42C97,533 127,542 159,542C225,542 234,496 234,480l0,-10C105,473 33,428 33,356C33,304 70,261 136,261C183,261 218,285 238,308l2,0l5,-42M235,372C235,366 232,355 225,345C213,326 187,309 157,309C126,309 99,328 99,361C99,417 172,429 235,427z"
   id="glyph41258" />
<glyph
   unicode="º"
   horiz-adv-x="355"
   d="M179,591C93,591 18,527 18,423C18,325 88,261 177,261C254,261 336,313 337,428C337,522 276,591 180,591M178,541C244,541 271,476 271,426C271,357 232,311 179,311C129,311 86,359 86,425C86,478 114,541 177,541z"
   id="glyph41260" />
<glyph
   unicode="ø"
   horiz-adv-x="549"
   d="M276,495C144,495 38,400 38,239C38,159 67,95 113,52l-42,-60l37,-30l44,61C187,0 230,-11 275,-11C388,-11 511,68 511,246C511,321 484,386 437,432l43,62l-39,27l-42,-60C363,484 320,495 277,495M162,119l-2,1C135,155 125,199 125,241C125,329 168,429 275,429C310,429 338,419 360,400M390,362l2,-1C418,323 426,276 426,243C426,134 365,55 273,55C243,55 216,63 192,83z"
   id="glyph41262" />
<glyph
   unicode="õ"
   horiz-adv-x="549"
   d="M271,-11C386,-11 511,67 511,247C511,394 417,495 278,495C145,495 38,400 38,238C38,85 140,-11 270,-11M272,55C187,55 127,135 127,241C127,333 172,429 275,429C379,429 420,326 420,244C420,134 357,55 273,55M198,561C200,589 209,606 224,606C237,606 249,600 269,589C289,577 308,567 330,567C377,567 398,602 397,663l-44,0C351,630 342,621 327,621C311,621 297,629 282,638C258,651 242,661 218,661C197,661 181,650 169,632C158,615 153,590 153,561z"
   id="glyph41264" />
<glyph
   unicode="p"
   horiz-adv-x="569"
   d="M73,-198l88,0l0,263l2,0C192,17 247,-11 312,-11C425,-11 532,75 532,249C532,396 444,495 326,495C248,495 190,461 155,401l-2,0l-5,83l-79,0C72,438 73,388 73,326M161,281C161,292 164,305 166,317C183,383 240,425 300,425C393,425 443,342 443,245C443,134 389,58 296,58C234,58 180,100 165,161C162,172 161,185 161,197z"
   id="glyph41266" />
<glyph
   unicode="¶"
   horiz-adv-x="512"
   d="M293,-49l0,665l71,0l0,-665l62,0l0,717C401,673 362,676 309,676C90,676 33,559 34,454C36,326 145,264 224,264l7,0l0,-313z"
   id="glyph41268" />
<glyph
   unicode="("
   horiz-adv-x="284"
   d="M195,694C132,610 65,481 64,285C64,90 132,-38 195,-121l68,0C193,-21 138,106 138,284C138,466 190,595 263,694z"
   id="glyph41270" />
<glyph
   unicode=")"
   horiz-adv-x="284"
   d="M88,-121C151,-36 218,91 219,287C219,483 151,612 88,694l-68,0C91,594 145,467 145,287C145,107 90,-22 20,-121z"
   id="glyph41272" />
<glyph
   unicode="%"
   horiz-adv-x="792"
   d="M187,661C100,661 30,588 30,458C31,328 100,262 182,262C266,262 337,330 337,467C337,591 278,661 188,661M185,608C246,608 269,542 269,463C269,377 243,315 185,315C130,315 98,379 100,461C100,543 130,608 184,608M611,392C524,392 454,319 454,189C455,59 524,-7 606,-7C690,-7 761,61 761,198C761,322 702,392 612,392M609,339C670,339 693,273 693,194C693,108 667,46 609,46C554,46 522,110 524,192C524,274 554,339 608,339M231,-12l383,674l-56,0l-383,-674z"
   id="glyph41274" />
<glyph
   unicode="."
   horiz-adv-x="207"
   d="M111,-11C147,-11 171,16 171,52C171,89 147,115 112,115C77,115 52,88 52,52C52,16 76,-11 110,-11z"
   id="glyph41276" />
<glyph
   unicode="·"
   horiz-adv-x="207"
   d="M103,211C139,211 163,238 163,273C163,310 139,336 104,336C69,336 44,310 44,273C44,238 68,211 102,211z"
   id="glyph41278" />
<glyph
   unicode="‰"
   horiz-adv-x="1156"
   d="M187,661C100,661 30,588 30,458C31,328 100,262 182,262C266,262 337,330 337,467C337,591 278,661 188,661M185,608C246,608 269,542 269,463C269,377 243,315 185,315C130,315 98,379 100,461C100,543 130,608 184,608M611,392C524,392 454,319 454,189C455,59 524,-7 606,-7C690,-7 761,61 761,198C761,322 702,392 612,392M609,339C670,339 693,273 693,194C693,108 667,46 609,46C554,46 522,110 524,192C524,274 554,339 608,339M976,392C889,392 819,319 819,189C820,59 889,-7 971,-7C1055,-7 1126,61 1126,198C1126,322 1067,392 977,392M974,339C1035,339 1058,273 1058,194C1058,108 1032,46 974,46C919,46 887,110 889,192C889,274 919,339 973,339M232,-12l382,674l-56,0l-382,-674z"
   id="glyph41280" />
<glyph
   unicode="+"
   horiz-adv-x="596"
   d="M266,532l0,-235l-226,0l0,-60l226,0l0,-237l64,0l0,237l226,0l0,60l-226,0l0,235z"
   id="glyph41282" />
<glyph
   unicode="±"
   horiz-adv-x="596"
   d="M266,571l0,-194l-226,0l0,-60l226,0l0,-200l64,0l0,200l226,0l0,60l-226,0l0,194M40,60l0,-60l516,0l0,60z"
   id="glyph41284" />
<glyph
   unicode="q"
   horiz-adv-x="563"
   d="M403,-198l88,0l0,549C491,402 492,444 495,484l-84,0l-3,-73l-2,0C382,458 332,495 257,495C155,495 38,415 38,234C38,86 130,-11 243,-11C321,-11 375,27 401,74l2,0M403,197C403,184 400,167 396,155C376,94 327,59 270,59C173,59 127,142 127,239C127,348 182,425 273,425C339,425 385,379 399,325C402,314 403,301 403,288z"
   id="glyph41286" />
<glyph
   unicode="?"
   horiz-adv-x="406"
   d="M220,191l-2,26C215,268 231,312 275,364C323,420 361,470 361,537C361,613 309,685 194,685C141,685 85,669 51,644l24,-63C100,601 140,612 176,612C239,612 271,577 271,526C271,482 246,443 201,390C151,330 133,271 139,217l2,-26M179,-11C215,-11 238,16 238,51C238,88 215,114 179,114C145,114 120,88 120,51C120,16 144,-11 178,-11z"
   id="glyph41288" />
<glyph
   unicode="¿"
   horiz-adv-x="406"
   d="M237,488C202,488 178,462 178,425C178,390 202,363 237,363C273,363 296,390 296,425C296,462 272,488 238,488M197,286l2,-26C202,209 186,165 142,112C94,56 56,6 56,-61C56,-137 108,-209 223,-209C276,-209 332,-192 366,-168l-23,63C316,-124 277,-136 241,-136C178,-136 146,-101 146,-50C146,-5 171,33 216,87C266,147 284,206 278,260l-2,26z"
   id="glyph41290" />
<glyph
   unicode="&quot;"
   horiz-adv-x="337"
   d="M51,692l16,-240l54,0l16,240M200,692l16,-240l54,0l16,240z"
   id="glyph41292" />
<glyph
   unicode="„"
   horiz-adv-x="356"
   d="M76,-112C103,-66 146,42 169,126l-90,-10C68,44 42,-59 20,-118M224,-112C251,-66 294,42 317,126l-90,-10C216,44 189,-59 168,-118z"
   id="glyph41294" />
<glyph
   unicode="“"
   horiz-adv-x="354"
   d="M125,458C136,530 163,633 184,692l-56,-6C101,640 58,532 35,448M273,458C284,530 310,633 332,692l-56,-6C249,640 206,532 183,448z"
   id="glyph41296" />
<glyph
   unicode="”"
   horiz-adv-x="354"
   d="M93,682C82,610 56,507 34,448l56,6C117,500 160,608 183,692M241,682C230,610 203,507 182,448l56,6C265,500 308,608 331,692z"
   id="glyph41298" />
<glyph
   unicode="‘"
   horiz-adv-x="207"
   d="M125,458C136,530 163,633 184,692l-56,-6C101,640 58,532 35,448z"
   id="glyph41300" />
<glyph
   unicode="’"
   horiz-adv-x="207"
   d="M93,682C82,610 55,507 34,448l56,6C117,500 160,608 183,692z"
   id="glyph41302" />
<glyph
   unicode="‚"
   horiz-adv-x="207"
   d="M77,-112C104,-66 147,42 170,126l-90,-10C69,44 42,-59 21,-118z"
   id="glyph41304" />
<glyph
   unicode="'"
   horiz-adv-x="188"
   d="M51,692l16,-240l54,0l16,240z"
   id="glyph41306" />
<glyph
   unicode="r"
   horiz-adv-x="327"
   d="M73,0l88,0l0,258C161,273 162,287 164,300C176,365 220,412 282,412C294,412 303,411 313,410l0,82C305,494 298,495 289,495C230,495 176,454 154,389l-3,0l-4,95l-77,0C73,439 74,390 74,333z"
   id="glyph41308" />
<glyph
   unicode="®"
   horiz-adv-x="510"
   d="M256,683C133,683 33,583 33,458C33,331 133,232 256,232C380,232 478,331 478,458C478,583 380,683 257,683M257,648C357,648 437,563 437,457C437,351 357,266 257,267C157,267 76,351 76,458C76,563 157,648 256,648M214,435l28,0C274,435 290,423 296,391C301,358 307,335 313,327l42,0C351,335 345,350 339,389C334,426 319,446 297,450l0,2C324,460 346,480 346,513C346,537 338,554 323,565C308,576 283,584 245,584C215,584 195,581 174,578l0,-251l40,0M214,551C221,552 230,553 243,553C288,553 304,531 304,509C304,478 276,466 243,466l-29,0z"
   id="glyph41310" />
<glyph
   unicode="˚"
   horiz-adv-x="400"
   d="M201,720C139,720 99,678 99,626C99,575 141,534 201,534C258,534 301,574 301,626C301,679 262,720 202,720M200,682C232,682 252,657 252,627C252,597 232,572 200,572C170,572 150,599 150,626C150,656 169,682 199,682z"
   id="glyph41312" />
<glyph
   unicode="s"
   horiz-adv-x="396"
   d="M40,23C74,3 123,-11 176,-11C289,-11 356,49 356,135C356,208 312,250 229,281C166,305 138,323 138,364C138,400 166,430 218,430C263,430 298,413 317,402l21,63C312,482 269,495 220,495C117,495 53,431 53,353C53,295 94,248 182,216C246,192 271,169 271,127C271,86 241,55 178,55C134,55 88,73 61,89z"
   id="glyph41314" />
<glyph
   unicode="š"
   horiz-adv-x="396"
   d="M40,23C74,3 123,-11 176,-11C289,-11 356,49 356,135C356,208 312,250 229,281C166,305 138,323 138,364C138,400 166,430 218,430C263,430 298,413 317,402l21,63C312,482 269,495 220,495C117,495 53,431 53,353C53,295 94,248 182,216C246,192 271,169 271,127C271,86 241,55 178,55C134,55 88,73 61,89M234,543l95,143l-65,0l-60,-95l-2,0l-59,95l-67,0l97,-143z"
   id="glyph41316" />
<glyph
   unicode="§"
   horiz-adv-x="519"
   d="M131,352C131,381 144,407 176,429C209,410 260,393 299,378C364,355 388,324 388,285C388,255 374,227 350,208C327,223 287,238 236,256C157,285 131,315 131,351M418,649C384,668 336,682 280,682C177,682 96,629 96,540C96,506 112,472 133,457C80,422 59,377 59,339C59,254 131,217 233,182C326,149 355,124 355,77C355,25 307,-4 244,-4C184,-4 135,19 111,36l-24,-57C125,-49 184,-63 244,-63C338,-63 434,-17 434,87C434,128 412,161 396,176C435,206 460,244 460,297C460,387 390,424 298,454C223,479 173,499 173,550C173,595 218,624 277,624C331,624 371,608 396,592z"
   id="glyph41318" />
<glyph
   unicode=";"
   horiz-adv-x="207"
   d="M78,-117C106,-70 150,41 174,126l-97,-10C66,43 39,-64 17,-123M119,342C155,342 178,369 178,404C178,441 155,467 119,467C85,467 60,441 60,404C60,369 84,342 118,342z"
   id="glyph41320" />
<glyph
   unicode="7"
   horiz-adv-x="513"
   d="M57,650l0,-73l318,0l0,-2l-281,-575l90,0l283,592l0,58z"
   id="glyph41322" />
<glyph
   unicode="6"
   horiz-adv-x="513"
   d="M416,661C400,661 378,660 352,656C270,646 198,613 144,560C79,495 34,394 34,266C34,97 125,-11 263,-11C399,-11 480,99 480,219C480,345 399,429 284,429C212,429 157,395 126,353l-2,0C139,461 211,562 350,584C375,588 398,590 416,589M264,57C172,57 122,137 121,244C121,260 125,272 130,282C154,330 204,362 257,362C338,362 391,306 391,213C391,120 340,57 265,57z"
   id="glyph41324" />
<glyph
   unicode="/"
   horiz-adv-x="343"
   d="M66,-40l280,725l-69,0l-278,-725z"
   id="glyph41326" />
<glyph
   unicode=" "
   horiz-adv-x="212"
   id="glyph41328" />
<glyph
   unicode="£"
   horiz-adv-x="513"
   d="M471,0l0,73l-298,0l0,2C207,104 231,140 242,183C251,219 249,257 246,295l135,0l0,63l-143,0C232,390 227,422 227,465C227,536 258,590 336,590C378,590 408,580 426,570l19,66C424,649 388,661 336,661C225,661 144,584 144,466C144,427 150,388 155,358l-93,0l0,-63l102,0C168,269 169,249 169,225C169,150 123,84 55,50l0,-50z"
   id="glyph41330" />
<glyph
   unicode="t"
   horiz-adv-x="331"
   d="M93,573l0,-89l-75,0l0,-67l75,0l0,-264C93,96 103,53 127,26C148,3 181,-11 222,-11C256,-11 283,-5 300,1l-4,67C283,64 269,62 245,62C196,62 179,96 179,156l0,261l126,0l0,67l-126,0l0,116z"
   id="glyph41332" />
<glyph
   unicode="þ"
   horiz-adv-x="569"
   d="M73,670l0,-868l88,0l0,263l2,0C194,17 248,-11 312,-11C421,-11 532,71 532,248C532,399 441,496 327,495C248,495 195,460 163,408l-2,0l0,262M161,281C161,296 166,316 170,330C191,389 244,425 301,425C391,425 443,343 443,247C443,131 385,58 299,58C240,58 190,92 170,147C164,160 161,177 161,191z"
   id="glyph41334" />
<glyph
   unicode="3"
   horiz-adv-x="513"
   d="M42,33C74,12 138,-11 211,-11C366,-11 448,80 448,184C448,275 383,335 303,350l0,2C382,381 423,438 423,506C423,585 365,661 237,661C167,661 101,636 66,611l24,-64C118,567 168,590 220,590C301,590 334,544 334,492C334,415 253,382 189,382l-49,0l0,-66l49,0C274,316 356,277 357,186C358,131 322,60 210,60C148,60 91,85 66,100z"
   id="glyph41336" />
<glyph
   unicode="¾"
   horiz-adv-x="759"
   d="M67,582C82,593 114,609 150,609C196,609 214,584 214,559C214,513 160,496 123,496l-28,0l0,-46l27,0C176,450 229,430 229,380C230,349 203,313 141,313C104,313 64,329 48,339l-18,-50C53,274 97,261 145,261C247,261 303,316 303,378C303,429 264,467 210,474l0,2C257,493 286,526 286,567C286,615 250,661 163,661C114,661 72,645 49,629M232,-11l379,672l-56,0l-380,-672M674,0l0,103l60,0l0,49l-60,0l0,243l-73,0l-193,-253l0,-39l200,0l0,-103M608,152l-128,0l-1,1l97,125C587,294 596,311 609,333l2,0C610,315 608,294 608,270z"
   id="glyph41338" />
<glyph
   unicode="³"
   horiz-adv-x="340"
   d="M72,582C88,593 121,609 157,609C202,609 220,584 220,559C220,513 166,496 129,496l-28,0l0,-46l27,0C181,450 234,430 234,380C235,349 208,313 146,313C109,313 69,328 53,339l-18,-50C58,274 102,261 150,261C252,261 308,316 308,378C308,428 269,467 215,474l0,2C263,493 292,526 292,567C292,615 256,661 170,661C121,661 78,645 55,630z"
   id="glyph41340" />
<glyph
   unicode="˜"
   horiz-adv-x="300"
   d="M73,561C75,589 84,606 99,606C112,606 124,600 144,589C164,577 183,567 205,567C252,567 273,602 272,663l-44,0C226,630 217,621 202,621C186,621 172,629 157,638C133,651 117,661 93,661C72,661 56,650 44,632C33,615 28,590 28,561z"
   id="glyph41342" />
<glyph
   unicode="™"
   horiz-adv-x="802"
   d="M15,674l0,-51l121,0l0,-347l60,0l0,347l122,0l0,51M764,276l-30,398l-78,0l-78,-215C568,430 559,395 550,358l-2,0C538,395 530,428 520,458l-78,216l-79,0l-31,-398l58,0l15,240C407,552 406,586 407,624l3,0C419,587 429,548 439,516l81,-235l46,0l83,229C661,545 673,587 683,624l3,0C687,585 685,547 687,516l16,-240z"
   id="glyph41344" />
<glyph
   unicode="2"
   horiz-adv-x="513"
   d="M460,0l0,73l-291,0l0,2l51,48C357,255 444,352 444,472C444,565 385,661 246,661C171,661 106,632 62,595l28,-62C120,558 169,588 228,588C325,588 356,527 356,461C356,363 280,279 114,121l-69,-67l0,-54z"
   id="glyph41346" />
<glyph
   unicode="²"
   horiz-adv-x="351"
   d="M44,266l270,0l0,55l-170,0l0,2l30,28C250,419 307,473 307,549C307,602 269,661 175,661C124,661 79,642 52,620l21,-46C92,588 122,605 157,605C209,605 233,574 233,535C233,484 190,438 107,361l-63,-58z"
   id="glyph41348" />
<glyph
   unicode="u"
   horiz-adv-x="551"
   d="M478,484l-88,0l0,-296C390,171 387,155 382,143C366,103 325,62 266,62C187,62 158,125 158,217l0,267l-88,0l0,-283C70,32 161,-11 237,-11C323,-11 375,40 397,79l2,0l5,-79l78,0C479,38 478,82 478,132z"
   id="glyph41350" />
<glyph
   unicode="ú"
   horiz-adv-x="551"
   d="M478,484l-88,0l0,-296C390,171 387,155 382,143C366,103 325,62 266,62C187,62 158,125 158,217l0,267l-88,0l0,-283C70,32 161,-11 237,-11C323,-11 375,40 397,79l2,0l5,-79l78,0C479,38 478,82 478,132M322,686l-88,-143l62,0l122,143z"
   id="glyph41352" />
<glyph
   unicode="û"
   horiz-adv-x="551"
   d="M478,484l-88,0l0,-296C390,171 387,155 382,143C366,103 325,62 266,62C187,62 158,125 158,217l0,267l-88,0l0,-283C70,32 161,-11 237,-11C323,-11 375,40 397,79l2,0l5,-79l78,0C479,38 478,82 478,132M246,686l-94,-143l64,0l58,94l2,0l58,-94l66,0l-96,143z"
   id="glyph41354" />
<glyph
   unicode="ü"
   horiz-adv-x="551"
   d="M478,484l-88,0l0,-296C390,171 387,155 382,143C366,103 325,62 266,62C187,62 158,125 158,217l0,267l-88,0l0,-283C70,32 161,-11 237,-11C323,-11 375,40 397,79l2,0l5,-79l78,0C479,38 478,82 478,132M188,557C217,557 236,580 236,607C236,635 215,657 188,657C160,657 138,634 138,607C138,580 158,557 187,557M370,557C400,557 419,580 419,607C419,635 398,657 371,657C342,657 321,634 321,607C321,580 341,557 369,557z"
   id="glyph41356" />
<glyph
   unicode="ù"
   horiz-adv-x="551"
   d="M478,484l-88,0l0,-296C390,171 387,155 382,143C366,103 325,62 266,62C187,62 158,125 158,217l0,267l-88,0l0,-283C70,32 161,-11 237,-11C323,-11 375,40 397,79l2,0l5,-79l78,0C479,38 478,82 478,132M146,686l122,-143l62,0l-88,143z"
   id="glyph41358" />
<glyph
   unicode="_"
   horiz-adv-x="500"
   d="M0,-75l0,-50l500,0l0,50z"
   id="glyph41360" />
<glyph
   unicode="v"
   horiz-adv-x="481"
   d="M13,484l184,-484l84,0l190,484l-92,0l-94,-271C269,168 255,128 244,88l-3,0C231,128 218,168 202,213l-95,271z"
   id="glyph41362" />
<glyph
   unicode="w"
   horiz-adv-x="736"
   d="M18,484l146,-484l80,0l78,230C339,282 354,333 366,391l2,0C380,334 394,286 411,231l74,-231l80,0l156,484l-87,0l-69,-243C549,184 536,133 528,84l-3,0C514,133 500,185 482,242l-75,242l-74,0l-79,-246C238,185 222,133 211,84l-3,0C199,134 186,185 173,239l-65,245z"
   id="glyph41364" />
<glyph
   unicode="x"
   horiz-adv-x="463"
   d="M16,484l164,-237l-172,-247l97,0l70,109C193,138 210,164 226,193l2,0C245,164 261,137 280,109l71,-109l100,0l-169,250l165,234l-96,0l-67,-103C267,355 251,330 235,302l-3,0C216,329 201,353 183,381l-69,103z"
   id="glyph41366" />
<glyph
   unicode="y"
   horiz-adv-x="471"
   d="M9,484l178,-447C192,27 194,20 194,15C194,9 191,3 187,-6C166,-51 137,-85 113,-104C87,-127 58,-141 36,-147l22,-74C80,-217 122,-202 166,-165C226,-112 269,-27 332,139l132,345l-93,0l-96,-284C263,165 253,128 244,99l-2,0C234,128 222,166 210,198l-105,286z"
   id="glyph41368" />
<glyph
   unicode="ý"
   horiz-adv-x="471"
   d="M9,484l178,-447C192,27 194,20 194,15C194,9 191,3 187,-6C166,-51 137,-85 113,-104C87,-127 58,-141 36,-147l22,-74C80,-217 122,-202 166,-165C226,-112 269,-27 332,139l132,345l-93,0l-96,-284C263,165 253,128 244,99l-2,0C234,128 222,166 210,198l-105,286M288,686l-88,-143l62,0l122,143z"
   id="glyph41370" />
<glyph
   unicode="ÿ"
   horiz-adv-x="471"
   d="M9,484l178,-447C192,27 194,20 194,15C194,9 191,3 187,-6C166,-51 137,-85 113,-104C87,-127 58,-141 36,-147l22,-74C80,-217 122,-202 166,-165C226,-112 269,-27 332,139l132,345l-93,0l-96,-284C263,165 253,128 244,99l-2,0C234,128 222,166 210,198l-105,286M157,557C186,557 205,580 205,607C205,635 184,657 157,657C129,657 107,634 107,607C107,580 127,557 156,557M339,557C369,557 388,580 388,607C388,635 367,657 340,657C311,657 290,634 290,607C290,580 310,557 338,557z"
   id="glyph41372" />
<glyph
   unicode="¥"
   horiz-adv-x="513"
   d="M292,0l0,176l156,0l0,49l-156,0l0,73l156,0l0,49l-130,0l179,303l-92,0l-108,-204C280,412 267,381 257,353l-3,0C242,383 230,410 214,444l-104,206l-94,0l169,-303l-131,0l0,-49l155,0l0,-73l-155,0l0,-49l155,0l0,-176z"
   id="glyph41374" />
<glyph
   unicode="z"
   horiz-adv-x="428"
   d="M18,0l393,0l0,70l-283,0l0,2C150,96 170,121 190,147l217,282l0,55l-369,0l0,-70l263,0l0,-2C278,386 259,363 237,336l-219,-285z"
   id="glyph41376" />
<glyph
   unicode="ž"
   horiz-adv-x="428"
   d="M18,0l393,0l0,70l-283,0l0,2C150,96 170,121 190,147l217,282l0,55l-369,0l0,-70l263,0l0,-2C278,386 259,363 237,336l-219,-285M259,543l95,143l-65,0l-60,-95l-2,0l-59,95l-67,0l97,-143z"
   id="glyph41378" />
<glyph
   unicode="0"
   horiz-adv-x="513"
   d="M253,-11C395,-11 478,111 478,332C478,539 399,661 263,661C131,661 36,542 36,323C38,108 125,-11 252,-11M255,57C174,57 122,159 124,328C124,491 176,593 256,593C348,593 388,488 388,328C388,162 345,57 256,57z"
   id="glyph41380" />
</font>
</defs>
</svg>
